&title=LOVE & JOY
&artist=木村由姫 [cover]
&first=0
&wholebpm=173
&shortid=10
&genreid=101
&genre=POPS&アニメ
&versionid=0
&version=maimai
&clock_count=4
&chartconverter=MaiChartManager v26.3
&ChartConvertTool=MuConvert
&ChartConvertToolVersion=0.4.0-rc.7+47834d4
&lv_2=5.0
&des_2=-
&inote_2=(173){1},
{2}3,3,
2,2,
1,1,
8,7,
6,6,
7,7,
8,8,
1,2,
3,3,
2,2,
1,1,
8,7,
6,6,
5,5,
4,3,
{4}2,2,2,,
8,8,8,,
,7,,6,
1,1,1,,
,2,,3,
6,7,8,8,
1,2,3,,
,2,,2,
1,8,1/8,,
8,8,8,,
,7,,6,
1,1,1,,
,2,,3,
6,7,8,8,
1,2,3,,
,2,,2,
1,8,1/8,,
{1}7-2[2:1],
{4},2,,1,
{1}8-5[2:1],
{4},5,,4,
{1}3-6[2:1],
{4},6,,7,
{1}8-5[2:1],
{4},6,,7,
{2}8,8,
{4}8,7,7,,
{2}1,1,
{4}1,2,3,,
{2}7,7,
{4}6,5,4,,
{2}2,2,
{4}3,4,5,,
7,6,6b,,
2,3,3b,,
7,6,6b,,
1,1,2,2,
3/6,3/6,3/6,,
8,8,8,,
,7,,6,
1,1,1,,
,2,,3,
6,7,8,8,
1,2,3,,
,2,,2,
1,8,1/8,,
8,8,8,,
,7,,6,
1,1,1,,
,2,,3,
6,7,8,8,
1,2,3,,
2,2,7,7,
1/7,8,1/8,
E
&lv_3=7.1
&des_3=-
&inote_3=(173){1},
{2}3,2,
1,8,
7,6,
5,5,
6,7,
8,1,
2,3,
4,4,
7,6,
5,4,
3,2,
1,1,
2,1,
8,7,
{1}6<2[2:1],
{4}1,8,2/7,,
7,8,2,1,
7,8,7,1/8,
5,7,4,2,
1,2,3,1/8,
2,3,4,5,
6,6,7,8,
7h[2:1],,,3,
1,8,2/7,,
7,8,2,1,
7,8,7,1/8,
5,7,4,2,
1,2,3,1/8,
3,2,1,8,
7,7,6,5,
{1}5-8[2:1],
{4}7/8,1/8,1/2,,
2/7,8,1,8,
2/6,7,8,7,
3/7,2,1,2,
3/6,5,4,5,
2/7,8,1,8,
1/8,7,2,7,
7h[4:3],2,2,2,
3,6,2,2/7,
1h[4:1],2,8h[4:1],7,
3,7h[4:1],6,,
{1}4h[4:3],
2>5[2:1],
{4}6,5,6,5,
3,4,3,4,
2h[2:1],,3,3,
6,7,8,,
{1}8-5[2:1],
{384},4-1[384:191]/5-8[384:191],,,,,,,,,,,,,,,,,,,,,,,,,,,,,,,,,,,,,,,,,,,,,,,,,,,,,,,,,,,,,,,,,,,,,,,,,,,,,,,,,,,,,,,,,,,,,,,,,,,,,,,,,,,,,,,,,,,,,,,,,,,,,,,,,,,,,,,,,,,,,,,,,,,,,,,,,,,,,,,,,,,,,,,,,,,,,,,,,,,,,,,,,,,,,,,,,,,,,,,,,,,,,,,,,,,,,,,,,,,,,,,,,,,,,,,,,,,,,,,,,,,,,,,,,,,,,,,,,,,,,,,,,,,,,,,,,,,,,,,,,,,,,,,,,,,,,,,,,,,,,,,,,,,,,,,,,,,,,,,,,,,,,,,,,,,,,,,,,,,,,,,,,,,,,,,,,,,,,,,,,,,,,,,,,,,,,,,,,,,,,,,
{4}7,6,{128}2,,,,,{8},{12},{4},{384}7>2[384:193],
{1},
{4}1,7,2b/7b,,
7,8,2,1,
7,8,7,1/8,
5,7,4,2,
1,2,1,1/8,
2,3,4,5,
6,6,7,8,
7h[2:1],,,3,
1,8,2/7,,
7,8,2,1,
7,8,7,1/8,
5,7,4,2,
1,2,1,1/8,
3,2,1,8,
7,7,6,5,
{1}5-8[2:1],
{4}2/7,2/6,3/6,1b/8b,
E
&lv_4=8.1
&des_4=-
&inote_4=(173){1},
{4}1,1,2,2,
3,3,4,5,
8,8,7,7,
6,6,5,4,
2,2,3,3,
4,4,5,6,
7,7,6,6,
5,5,4,3,
1,7,5,3,
1,7,5,3,
8,2,4,6,
8,2,4,6,
1,6,3,8,
5,2,7,4,
8,3,6,1,
4,2/7,1b/4,,
{8}8,,7,,1,,2,2,
,8,,7,7,,1b,,
3,,2,,1,,1,6,
,7,,8,8,,1b,,
{4}4h[4:1],3h[4:1],2h[4:1],1h[4:1],
8h[4:1],7h[4:1],6h[4:1],5h[4:1],
{8}3,,,6,,,5-1[2:1],,
{1},
{8}1,,2,,8,,7,7,
,1,,2,2,,8,,
6,,7,,8,,8,3,
,2,,1/7,2/8,,,,
{4}4h[4:1],6h[4:1],2h[4:1],8h[4:1],
1h[4:1],7h[4:1],3h[4:1],5h[4:1],
8h[4:1],2,4h[4:1],6,
{1}8-4[2:1],
{8}6,5,,5,,5,6,,
3,4,,4,,4,3,4,
,{4}4,5,6,7,
6,5,4,{8}3,
3,4,,4,,4,3,,
6,5,,5,,5,6,5,
,{4}5,4,3,2,
3,4,5,{8}6,
{4}7h[4:1],6,2h[4:1],3,
7-2[4:1],6,,3,
2h[4:1],3,7h[4:1],6,
2-7[4:1],3,,6,
{8}3,3,3,,6,6,6,,
{2}2-5[4:1],7-4[4:1],
{4}1,2,6,5,
{8}8,,7,,3,,4,2,
2-5[2:1],2,,,,,,7,
7-4[2:1],7,,,,,,,
1,2,1,2,8,7,8,7>2[4:1],
,,,{2}3<6[4:1],{8}7-3[4:1],
,,,,,2,2,2,
1,,2,,8,,7,7,
,1,,2,2,,8b,,
6,,7,,8,,8,3,
,2,,1,1,,8b,,
{4}5h[4:1],6h[4:1],7h[4:1],8h[4:1],
1h[4:1],2h[4:1],3h[4:1],4h[4:1],
{8}6,,,3,,,4-8[2:1],,
{1},
{8}8,,7,,1,,2,2,
,8,,7,7,,1,,
3,,2,,1,,1,6,
,7,,2/8,1/7,,,,
{4}5h[4:1],3h[4:1],7h[4:1],1h[4:1],
8h[4:1],2h[4:1],6h[4:1],4h[4:1],
1h[4:1],7,5h[4:1],3,
1,2/7h[2:1],6,2,
8-5[2:1],
E
&lv_5=9.9
&des_5=-
&inote_5=(173){1},
{4}1h[1:2],2,5,8,
3,6,7,2,
8h[1:2],7,4,1,
6,3,2,7,
4h[1:2],3,8,5,
2,7,5,3,
5h[1:2],6,1,4,
7,2,4,6-2[2:1],
,1,8,7/8>3[2:1],
6,5,4,2-7[2:1]/3,
,8,1,1<6[2:1]/2,
3,4,5,6/7-2[2:1],
,1,8,7/8>3[2:1],
6,5,4,5-8[2:1],
{1},
{4}2/6,3/7,1b/5b,,
{8}2/6,,4/8,,2/7,,3h[8:3],2,
,5,,8,1,1,1b,,
5h[4:1]/6,,3,,1h[2:1]/2,,8,8,
,7,,6,5,5,5b,,
{4}1/5,4/8,3/7,2/6,
{8}1/5,,3/7,,1/5,,8,8,
8,,,1,,5,4-7[8:1],,
{4}5-2[8:1],3-8[8:1],6-1[8:1],,
{8}2/6,,4/8,,2/7,,3h[8:3],2,
,5,,8,1,1,1b,,
5h[2:1]/6,,3,,1h[2:1],,8,8,
,7,,6,5,5,5b,,
{4}1/5,4/8,3/7,2/6,
{8}1/5,,3/7,,1/5,,8,8,
8,,,3/6,,3,2/3,,
7,,6/7,,3,4,3,4,
4,5-1[8:1],,,,8,7,8,
8,1-4[8:1],,,,5,5,6,
,6,,6,,7,6,7,
,8,,8,,8,1,8,
7,6-2[8:1],,,,1,8,1,
1,2-7[8:1],,,,6,6,5,
,5,,5,,4,5,4-7[8:1],
,{4}2-5[8:1],8-4[8:1],{8}1-5[8:1],,,
1,1,1,,7,7,7,,
3,3,3,,5,5,5,,
2,2,2,,8,8,8,1,
,2/6,,4/8,,1,1,,
3,2,3,2,4,3,4,3,
,7,7,,1/5,,3/7,,
6,6,6,,4,4,4,,
5,5,5,2,1/2,,1/8,,
{4}6-1[8:1],2-5[8:1],,,
8-3[8:1],4-7[8:1],,,
1-4[8:1],5-8[8:1],,1,
7<4[8:1],8>3[8:1],1-4[8:1],5-8[2:1],
{1},
{8}2b/6b,,4b/8b,,2b/7b,,3h[8:3],2,
,5,,8,1,1,1b,,
5h[2:1]/6,,3,,1h[2:1],,8,8,
,7,,6,5,5,5b,,
{4}1/5,4/8,3/7,2/6,
{8}1/5,,3/7,,1/5,,8,8,
8,,,1,,5,4-7[8:1],,
{4}5-2[8:1],3-8[8:1],6-1[8:1],,
{8}2/6,,4/8,,2/7,,3h[8:3],2,
,5,,8,1,1,1b,,
5h[2:1]/6,,3,,1h[2:1],,8,8,
,7,,6,5,5,5b,,
{4}1/5b,4/8b,3/7b,2/6b,
{8}1/5b,,3/7b,,1/5b,,8,8,
{4}8,1/8,3,2/3,
{8}4/5,,6/7,,3,4,3,4,
E
