&title=じょいふる
&artist=いきものがかり [cover]
&first=0
&wholebpm=159
&shortid=11
&genreid=101
&genre=POPS&アニメ
&versionid=0
&version=maimai
&clock_count=4
&chartconverter=MaiChartManager v26.3
&ChartConvertTool=MuConvert
&ChartConvertToolVersion=0.4.0-rc.7+47834d4
&lv_2=5.0
&des_2=-
&inote_2=(159){1},
{4},5,,6,
,{2}7,8,
1,2,
3,4,
2,2,
3,3,
6,6,
7,7,
2,7,
2,{4}7,
{2}1/8,2/7,
{4}7/8,1/8,2b,,
6,6,7,7,
8,8,,,
,{2}2,2,
3,{4}3,
3,3,2,2,
1,1,,,
,{2}7,7,
6,{4}6,
{1}7-3[2:1],
{4},,3,3,
{1}2-6[2:1],
{4},,6,6,
,,8,1,
2,3,,,
1/8,2/7,3/6,,
{1}1h[2:1],
2-6[2:1],
{4},,6,{128}6,,,,,{24},,,,,{384}7-3[384:193],
{1},
{4},,3,3,
,,5,6,
7,8,,,
1/8,2/7,3h[4:1]/6h[4:1],,
{1}8-5[2:1],
{2},3,
{4}2,,8,8,
{2},6,
{4}7,,1,1,
2,2,8,8,
6,6,4,4,
{2}4/5,3/6,
{4}7/8,1/8,2b,,
6,6,7,7,
8,8,,,
,{2}2,2,
3,{4}3,
3,3,2,2,
1,1,,,
,{2}7,7,
6,{4}6,
1,2,1,2,
1,2,1,2,
8,7,8,7,
8,7,8,7,
8,1,8,1,
7,2,7,2,
{2}1/8,2/7,
{1}3/6,
2/7,
E
&lv_3=6.2
&des_3=-
&inote_3=(159){1},
{4}6,1,6,1,
5,2,5,2,
8,3,8,3,
7,4,7,4,
2,2,1,1,
8,8,7,7/8,
6,6,5,5,
4,4,3,3/5,
2,2,1,1,
8,8,7,2/7,
{2}1/8,4/5,
{4}1/6,3/8,2b/7b,,
6,6,5,5,
4,4,2,2,
8,8,7,7,
6,6,4,4,
6,6,7,7,
8,8,2,2,
4,4,5,5,
6,6,7,7,
1/8,1/7,1/6,,
{1}8-4[2:1],
{4}1/8,2/8,3/8,,
{1}1-5[2:1],
{4}2/6,3/7,2/6,2,
3,3,4/5,3/6,
1/8,2/7,{128}3/6,,,,,{8},{12},{4},{384}1-5[384:193],
{1},
{4}4/5,4/6,4/7,,
{384},8-4[384:191],,,,,,,,,,,,,,,,,,,,,,,,,,,,,,,,,,,,,,,,,,,,,,,,,,,,,,,,,,,,,,,,,,,,,,,,,,,,,,,,,,,,,,,,,,,,,,,,,,,,,,,,,,,,,,,,,,,,,,,,,,,,,,,,,,,,,,,,,,,,,,,,,,,,,,,,,,,,,,,,,,,,,,,,,,,,,,,,,,,,,,,,,,,,,,,,,,,,,,,,,,,,,,,,,,,,,,,,,,,,,,,,,,,,,,,,,,,,,,,,,,,,,,,,,,,,,,,,,,,,,,,,,,,,,,,,,,,,,,,,,,,,,,,,,,,,,,,,,,,,,,,,,,,,,,,,,,,,,,,,,,,,,,,,,,,,,,,,,,,,,,,,,,,,,,,,,,,,,,,,,,,,,,,,,,,,,,,,,,,,,,,
{4}4/5,3/5,2/5,,
{1}1-5[2:1],
{4}2/6,3/7,2/6,2,
3,3,4/5,3/6,
1/8,2/7,3h[4:1]/6h[4:1],,
{384},1-5[384:191],,,,,,,,,,,,,,,,,,,,,,,,,,,,,,,,,,,,,,,,,,,,,,,,,,,,,,,,,,,,,,,,,,,,,,,,,,,,,,,,,,,,,,,,,,,,,,,,,,,,,,,,,,,,,,,,,,,,,,,,,,,,,,,,,,,,,,,,,,,,,,,,,,,,,,,,,,,,,,,,,,,,,,,,,,,,,,,,,,,,,,,,,,,,,,,,,,,,,,,,,,,,,,,,,,,,,,,,,,,,,,,,,,,,,,,,,,,,,,,,,,,,,,,,,,,,,,,,,,,,,,,,,,,,,,,,,,,,,,,,,,,,,,,,,,,,,,,,,,,,,,,,,,,,,,,,,,,,,,,,,,,,,,,,,,,,,,,,,,,,,,,,,,,,,,,,,,,,,,,,,,,,,,,,,,,,,,,,,,,,,,,
{4}4,3,3,2,
2,1,8,8,
5,6,6,7,
7,8,1,1,
7/8,1/2,3/4,5/6,
3/4,1/2,7/8,5/6,
{2}1/8,1/8,
{4}1/6,3/8,2b/7b,,
6,7,6,8,
7,8,2,2,
4,5,4,6,
5,6,8,8,
6,5,6,4,
5,4,2,2,
8,7,8,6,
7,6,5,5,
3/8,2,3/8,1,
1/8,2/7,3/6,4/5,
4/7,6,4/7,5,
4/5,3/6,2/7,1/8,
3/7,2/6,3/7,2/6,
1/8,1/8,2/7,2/7,
{2}1h[4:1]/6h[4:1],2h[4:1]/7h[4:1],
{1}3h[4:1]/8h[4:1],
1h[4:3]/3h[4:3],
E
&lv_4=7.0
&des_4=-
&inote_4=(159){1},
{8}5,5,5,,6,6,6,,
7,7,7,,8,8,8,,
4,4,4,,3,3,3,,
2,2,2,,1,1,1,,
,,7h[2:1]/8h[2:1],,,,,,
{4}6,1,1/6,,
,1h[2:1]/2h[2:1],,,
3,8,3/8,,
5,6,4,3,
2/7,2/7,2/7,,
{2}5/8,1/4,
{4}3/7,2/6,4b/8b,,
1/3h[4:5],8,1,8,
7,8,2/6,3/7,
2h[4:1],1,6h[4:1],5,
1/8,3/7,4/8,3/7,
1/3h[4:5],8,1,8,
7,8,2/6,3/7,
2h[4:1],1,6h[4:1],5,
1/8,2/6,1/5,2/6,
3,3,4/5,3/6,
{2}4-7[4:1],5-2[4:1],
{4}7,2,1/8,2/7,
{2}8-5[4:1],1-4[4:1],
{4}2,3,2,3,
{2}2,3>8[2:1],
,7>2[2:1],
{1},
{4}3,3,4/5,3/6,
{2}4-7[4:1],5-2[4:1],
{4}7,2,1/8,2/7,
{2}1-4[4:1],8-5[4:1],
{4}7,6,7,6,
{2}7,6<1[2:1],
,2<7[2:1],
{1},
{4}4/5,6,4/5,6,
4/5,6,7,2,
4/5,3/6,4/5,3/6,
4/5,3/6,8,1,
7,3,2,6,
1/8,2/7,3/6,4/5,
{2}5/8,1/4,
{4}3/7,2/6,4b/8b,,
1/3h[4:5],8,1,8,
7,8,2/6,3/7,
2h[4:1],1,6h[4:1],5,
1/8,3/7,4/8,3/7,
1/3h[4:5],8,1,8,
7,8,2/6,3/7,
2h[4:1],1,6h[4:1],5,
1/8,2/6,1/5,2/6,
{8}8,8,1,1,5,,4,,
{2}7-3[4:1],2-6[4:1],
{8}8,8,1,1,5,,4,,
{2}2-6[4:1],7-3[4:1],
{8}7,7,2,2,6,,3,,
{4}8,1,2/7,4/5,
{2}3h[4:1]/8h[4:1],1h[4:1]/6h[4:1],
{4}4h[2:1]/7h[2:1],,,5>2[4:3],
E
&lv_5=8.7
&des_5=-
&inote_5=(159){1},
{8}4,5,4,5,3,4,3,4,
2,3,2,3,1,2,1,2,
5,4,5,4,6,5,6,5,
7,6,7,6,8,7,8,7,
1/8h[4:3],,7,7,7,,1,1,
3,3,3,2/4,,6,5,6,
4h[4:3]/5,,3,3,3,,5,5,
7,7,7,6/8,,2,1,2,
1/8h[4:3],,7,7,7,,1,1,
2,2,2,1/3,,5,6,5,
6/7b,,,4,2b/3,,,5,
{4}6/7b,2b/3,1b/8b,,
2h[4:1]/7,5,2/7h[4:1],5,
{8}2h[4:1]/7,,5,,7,8,1,2-5[4:1],
,,,{2}7-4[4:1],2-5[4:1],
{8}7-4[4:1],,,,,
{4}2/7h[4:1],4,2h[4:1]/7,4,
{8}2/7h[4:1],,4,,2,1,8,7-4[4:1],
,,,{2}2-5[4:1],7-4[4:1],
{8}2-5[4:1],,,,,
7,6,7,6,8,,1h[8:3],2,
,3,4-8[8:1],3,2-6[8:1],,,,
2,3,2,3,1,,8h[8:3],7,
,6,5-1[8:1],6,7-3[8:1],,,,
8,7,6,5,8,,1,2,
3,4,1,,1/8,,2/7,,
{4}3/8,1/4,2/5,3/6,
4/7b,5/8b,1/6b,2b/7-4[4:1],
{8}1,2,1,2,8,,3,,
{4}5/6,4/7,5/6,1-5[4:1]/5b,
{8}8,7,8,7,1,,6,,
{4}3/4,2/5,3/4,4b/8-4[4:1],
{8}1,2,3,4,1,,7h[2:1],6,
5,6,6,,1/8,,2/7,,
{4}1/6,5/8,4/7,3/6,
2/5b,1/4b,3b/8b,2b/7b,
{8}3/6,,4,4,3/6,,5,5,
3/6,,4,4,2/7,,2/7,,
3/6,,5,5,3/6,,4,4,
3/6,,5,5,2/7,,2/7,,
{4}1/8,1/8,3/4,5/6,
1/8,2/7,3/6,4/5,
{8}6/7,,,1,2/3,,,8,
6/7b,1,2b/3,8,2b/7b,,,,
{4}2h[4:1]/7,5,2/7h[4:1],5,
{8}2h[4:1]/7,,5,,7,8,1,2-5[4:1],
,,,{2}7-4[4:1],2-5[4:1],
{8}7-4[4:1],,,,,
{4}2/7h[4:1],4,2h[4:1]/7,4,
{8}2/7h[4:1],,4,,2,1,8,7-4[4:1],
,,,{2}2-5[4:1],7-4[4:1],
{8}2-5[4:1],,,,,
1,1,6,6,2,2,5,5,
3,3,8,8,4b,4,7b,7,
8,8,3,3,7,7,4,4,
6,6,1,1,5b,5,2b,2,
8,4,6,2,1,5,3,7,
8,3,6,1,8b,4,2b,6,
{6}1/8,7/8,6/7,5/6,4/5,3/4,
{4}2/3,,,1-6[4:3]/2-5[4:3],
E
