&title=Everyday、カチューシャ
&artist=AKB48 [PV]
&first=0
&wholebpm=172
&shortid=15
&genreid=101
&genre=POPS&アニメ
&versionid=0
&version=maimai
&clock_count=4
&chartconverter=MaiChartManager v26.3
&ChartConvertTool=MuConvert
&ChartConvertToolVersion=0.4.0-rc.7+47834d4
&lv_2=4.0
&des_2=-
&inote_2=(172.4){1},
{4},7,,8,
,{2}1,2,
3,4,
5,6,
7,6,
5,4,
3,{4}2,
,,1/8,1/8,
,{2}2,2,
7,7,
2,2,
7,7,
6h[2:1],,
5h[2:1],,
5,4,
5,4,
7,7,
8,8,
2,2,
1,1,
2h[2:1],,
3h[2:1],,
5,4,
5,4,
2,1,
2,1,
8,7,
8,7,
6h[2:1],,
5h[2:1],,
4,3,
2,1,
7,7,
8h[2:1],,
2,2,
1h[2:1],,
2h[4:1],3,
3h[4:1],4,
5,4,
5,{4}4b,
{1},
7,
2/7,
2-6[2:1],,
1,
1/7,
8-3[2:1],,
3/5,
{2}5,6,
{1}7-3[2:1],
{4},2/7,,3/6,
,{2}2/7,{4}3/6,
,1,8,7,
8,1,2,3,
,{2}2,2,
1,8,
7,7,
8,1,
2,2,
3,4,
5,5,
4,{4}3,
,1/2,1/2,,
,7/8,7/8,,
,5/6,5/6,,
,3/4,3/4,,
{1}6-3[2:1],,
{4}7h[8:3],,,8h[8:3],
{1},
{4},{2}7,7,
8,1,
2,2,
1,8,
7,7,
6,5,
4,4,
5,{4}6,
,7/8,7/8,,
,1/2,1/2,,
,3/4,3/4,,
,5/6,5/6,,
{1}3-6[2:1],,
{4}7h[8:3],,,8h[8:3],
{1},
{4}8,7,8,7,
,{2}8,{4}7/8,
1,2,1,2,
,{2}1/2,{4}1/2,
3,4,3,4,
,{2}3,{4}3/4,
5,6,5,6,
,{2}3/6,1b,
E
&lv_3=6.9
&des_3=-
&inote_3=(172.4){1},
{4},3,2,3,
,3,2/6,2/6,
,6,7,6,
,6,3/7,3/7,
,8,6,3/7,
,1,3,2/6,
{1}2-7[2:1],
{384},{8},{384}2h[384:239]/7h[384:239],,,,,,,,,,,,,,,,,,,,,,,,,,,,,,,,,,,,,,,,,,,,,,,,,,,,,,,,,,,,,,,,,,,,,,,,,,,,,,,,,,,,,,,,,,,,,,,,,,,,,,,,,,,,,,,,,,,,,,,,,,,,,,,,,,,,,,,,,,,,,,,,,,,,,,,,,,,,,,,,,,,,,,,,,,,,,,,,,,,,,,,,,,,,,,,,,,,,,,,,,,,,,,,,,,,,,,,,,,,,,,,,,,,,,,,,,,,,,,,,,,,,,,,,,,,,,,,,,,,,,,,,,,,,,,,,,,,,,,,,,,,,,,,,,,,,,,,,,,,,,,,,,,,,,,,,,,,,,,,,,,,,,,,,,,,,,,,
{4},2/5,,8,
,{2}4/7,1,
2/3h[2:1],{4}7,
8h[2:1],1,2,,
3,2,1,8,
7,2h[2:1],,6,
{2}7h[4:1],8h[4:1],
{1}1h[2:1],
{4},4/7,,1,
,{2}2/5,8,
6h[2:1]/7,2,
1h[2:1],{4}8,
6,7,8,1,
2,7h[2:1],,3,
{2}2h[4:1],1h[4:1],
8h[4:1],7h[4:1],
{4},2/8h[2:1],,6-3[2:1],
{1},
{4},{2}1h[2:1]/7,{4}3-6[2:1],
{1},
{4}3,2,1,8,
7,2h[2:1],,6,
{2}7h[4:1],8h[4:1],
{4}1h[2:1],2,3,,
,1/7,,8h[1:1],
,{2}1,2,
6h[2:1]/7,2h[1:1],
1,{4}8,
8,7,8,1,
2,7h[2:1],,3,
{2}2h[4:1],1h[4:1],
8h[4:1],7h[4:1],
{1}6-2[2:1],,
3-7[2:1],,
6<1[2:1],,
2h[4:3],
{2}1/2,7/8,
7h[2:1],8,
6h[2:1],7,
{8}8,,,7/8,,1/8,,1h[8:7]/2h[8:7],
{1},
{4}7h[4:7],3,,3,
,{2}3,{4}3,
{1}8<5[2:1],,
{2},8h[2:1],
{4}1,2,3,4,
{2},5h[2:1],
{4}4,3,2,1,
{1}1>4[2:1],
{4}5,6,7,8,
{2}1h[4:3],8h[4:1],
{4}1/8,7,2,,
4,5,4,5,
6,5,4,5,
4,3,4,5,
4,5,6,7,
{1}6<1[2:1],,
3<6[384:193],
{4},6,,7,
8,1,8h[2:1],7,
1,2,3,4,
4,5,4h[2:1],3,
5,6,7,8,
{1}1>4[2:1],
{4}3,2,1,2,
{2}1h[4:3],8h[4:1],
{4}1/8,7/8,1/2,,
4,5,4,5,
6,5,4,5,
4,3,4,5,
4,5,6,7,
{1}6<1[2:1],,
{8}3h[4:1],,,2h[4:1],,,1h[4:1],,
,8h[4:1],,,1,,1,,
{4}7,6,7,6,
{8}7,,1/8,1/8,,,,,
{4}3,2,3,2,
3,4,5,4/5,
2,3,2,3,
{8}2,,1/8,1/8,,,,,
6,,7,,6,,7,6/7,
{4},3/6,2,1b/8b,
E
&lv_4=8.5
&des_4=-
&inote_4=(172.4){1},
{4}1,1/2,2,2/3,
3,3/4,7/8,1/2,
8,7/8,7,6/7,
6,5/6,1/2,7/8,
1,2/8,8,1/7,
1,2/8,8,1/7,
{8}2,2,,3,3,,6,6,
,7,,1,1/8,,2b/7b,,
{4}1,2,2,1,
8,7/8,8,7/8,
8,7,7,8,
1,1/2,1,1/2,
7,6,7,6/7,
2,3,2,2/3,
4,5,4,5,
4,3/4,5,5/6,
8,7,6,7,
8,7/8,1,1/2,
1,2,3,2,
1,1/2,8,7/8,
6,6/7,3,2/3,
5,5/6,4,3/4,
8,7/8,1,1/2,
7,6/7,2,2/3,
8,7/8,8,7/8,
8h[4:3],1,2,3,
1,1/2,1,1/2,
1h[4:3],8,7,6,
8,7/8,7,6/7,
1,1/2,2,2/3,
3/4,4/5,5/6,4/5,
{1}3<6[2:1]/4,
{4}6,5,4,5,
6,7/8,1/8,1/2,
2/3,4,5,4,
3,1/2,1/8,7/8,
6,5/6,3,3/4,
5,4/5,4,4/5,
7,1/7,2,2/8,
7,1/7,2,2/8,
{1}4<7[2:1],
8>3[2:1],
4-8[2:1],,
5>2[384:191],
1<6[2:1],
5-1[2:1],,
{8}2h[2:1],,,5,5,,,,
7h[2:1],,,4,4,,,,
8,,6,6,,2,,4b,
{1},
{4},8,1,2,
3h[1:1],2,1,8,
{1}7>2[2:1],
{4}2/7,1/8,2/7,3/6,
8,7/8,1,1/2,
1/8,1/8,4/5,4/5,
2h[4:3]/8,1,8,1,
1/7h[4:3],8,1,8,
{1}1<6[2:1],
{4}4/6,3/5,4/6,3/5,
{1}1-4[2:1]/8-5[2:1],
{4}5/6,4/5,3/4,,
2/4,3/5,2/4,3/5,
4/6,3/5,4/6,3/5,
5/7,4/6,5/7,4/6,
3/5,4/6,3/5,4>1[2:1]/5<8[2:1],
{1},
1-4[2:1],
{8}3/7,,,8,,,1,,
,2,,,1/2,,1/8,,
{4}8,7/8,1,1/2,
1/8,1/8,4/5,4/5,
2h[4:3]/8,1,8,1,
1/7h[4:3],8,1,8,
{1}8<5[2:1],
{4}4/6,3/5,4/6,3/5,
{1}1-4[2:1]/8-5[2:1],
{4}5/6,4/5,3/4,,
2/4,3/5,2/4,3/5,
4/6,3/5,4/6,3/5,
5/7,4/6,5/7,4/6,
3/5,4/6,3/5,4>1[2:1]/5<8[2:1],
{1},
1-4[2:1],
{8}3h[4:5]/7h[8:1],,,8h[8:1],,,1h[8:1],,
,2h[8:1],,,1/2,,1/8,,
{4}4/7,2/5,4/7,2/5,
{8}8,,8,1,,,,,
4/7,,2/5,,4/7,,2/5,2/5,
{4},,1/8,1/8,
4/7,2/5,4/7,2/5,
{8}8,,8,1,,,,,
4/7,,2/5,,4/7,,2/5,2/5,
{4},7,4,1b,
E
&lv_5=8.9
&des_5=-
&inote_5=(172.4){1},
{2}3-8[8:1],6-1[8:1],
{4}3-8[8:1],,1/2,7/8,
{2}6-1[8:1],3-8[8:1],
{4}6-1[8:1],,3/4,3/4,
{2}3-8[8:1],6-1[8:1],
{4}3-8[8:1],,5/6,5/6,
{2}6-1[8:1],3-8[8:1],
{4}6-1[8:1],,1/8,1b/8b,
{2}5>2[8:1],4<7[8:1],
5>2[8:1],4<7[8:1],
5>2[8:1],4<7[8:1],
4-1[8:1]/5-8[8:1],1>4[8:1]/8<5[8:1],
{4}5,1/2,4,7/8,
5,1/2,4,7/8,
5,6>2[8:1],,1/8,
3/4,5/6,1/2,7/8,
5h[1:1],4,3,2,
4h[4:3],5,6,7,
3h[4:1],6h[4:1],2h[4:1],7,
{2}4-1[8:1]/5-8[8:1],1>4[8:1]/8<5[8:1],
{4}4h[2:1],3,5h[4:1],6,
3h[2:1],2,6h[4:1],7,
4h[4:1],3h[4:1],2h[4:1],1h[4:1],
5h[4:1],6h[4:1],7h[4:1],8h[4:1],
{2}5>2[8:1],4<7[8:1],
5>2[8:1],4<7[8:1],
5>2[8:1],4<7[8:1],
4-1[8:1]/5-8[8:1],1>4[8:1]/8<5[8:1],
{4}5,1/2,4,7/8,
5,1/2,4,7/8,
5,6>2[8:1],,1/8,
3/4,5/6,1/2,7/8,
5h[1:1],4,3,2,
4h[4:3],5,6,7,
3h[4:1],6h[4:1],2h[4:1],7,
{2}4-1[8:1]/5-8[8:1],1>4[8:1]/8<5[8:1],
{4}4h[2:1],3b,5h[4:1],6b,
3h[2:1],2b,6h[4:1],7b,
4h[4:1],3h[4:1],2h[4:1],1h[4:1],
5h[4:1],6h[4:1],7h[4:1],8h[4:1],
{8}6,8,7,8,1,7,8,7,
{1}4-8[2:1],
{8}6,8,7,8,1,7,8,7,
{1}4-8[2:1],
{8}3,1,2,1,8,2,1,2,
{1}5-1[2:1],
{8}3,1,2,1,8,2,1,2,
{1}5-1[2:1],
{8}6,8,7,8,1,7,8,7,
{1}2-7[2:1],
{8}3,1,2,1,8,2,1,2,
{1}7-2[2:1],
{4}8,2/6,8,2/6,
1,3/7,1,3/7,
1/7,3/5,1/7,3/5,
2/8,4/6,2/8,4/6,
{8}2-7[4:1]/3,,,,6,5,6,5,
{2}5>2[8:1]/6,1<6[8:1]/2,
{8}1-6[4:1]/2,,,,7,8,1,2,
{2}2/3<6[8:1],6/7>2[8:1],
{4}4h[4:1],3,6h[4:1],7,
2h[4:1],1,8h[4:1],1-5[8:1],
,4/6,3/5,4/6,
{384}1h[4:3]/6,{4},{128}5,,,,,{24},,,,,{4}6,5,
1h[4:1],3,8h[4:1],6,
2/4,5/7,1h[4:1],3,
8h[4:1],6,1h[4:1],3,
5/7,4/6,8h[4:1],6,
{2}5>2[8:1],4<7[8:1],
{4}2/4,5/7,5>2[8:1],,
7-4[8:1]/8-3[8:1],,,1-6[8:1]/2-5[8:1],
,,7/8,1/2,
{8}2-7[4:1]/3b,,,,6,5,6,5,
{2}5>2[8:1]/6,1<6[8:1]/2,
{8}1-6[4:1]/2b,,,,7,8,1,2,
{2}2/3<6[8:1],6/7>2[8:1],
{4}4h[4:1],3,6h[4:1],7,
2h[4:1],1,8h[4:1],1-5[8:1],
,4/6,3/5,4/6,
{384}1h[384:289]/6,{4},5,6,{384}5,,,,,,,,,,,,,,,,,,,,,,,,,,,,,,,,,,,,,,,,,,,,,,,,,,,,,,,,,,,,,,,,,,,,,,,,,,,,,,,,,,,,,,,,,,,,,,,
{4}1h[4:1],3,8h[4:1],6,
2/4,5/7,1h[4:1],3,
8h[4:1],6,1h[4:1],3,
5/7,4/6,8h[4:1],6,
{2}5>2[8:1],4<7[8:1],
5>2[8:1],4<7[8:1],
{4}7-4[8:1]/8-3[8:1],,,1-6[8:1]/2-5[8:1],
,,7/8,1/2,
5/6,3/4,5/6,3/4,
{1}7<2[2:1],
{8}3/4,,5/6,,3/4,,5/6,3/4,
,5,5,5,2b,,7b,,
{4}3/4,5/6,3/4,5/6,
{1}2>7[2:1],
{8}5/6,,3/4,,5/6,,3/4,5/6,
,4,4,4,7,,2b/7b,
E
