&title=Future
&artist=★STAR GUiTAR [cover]
&first=0
&wholebpm=130
&shortid=17
&genreid=101
&genre=POPS&アニメ
&versionid=0
&version=maimai
&demo_seek=16
&demo_len=14
&clock_count=4
&lv_2=7.0
&des_2=-
&inote_2=(130){1},,,,,
{4},2,,4,
,{2}6,{4}8,
1,2,3,4,
5,6,7,8,
1,2,3,3,
,1,8,7,
8,7,6,6,
,8,1,2,
1,8,7,1/7,
,7,8,1,
8,1,2,2/8,
,2,1,8b,
{1}7-2[2:1],,
{2}2,8,
6,4,
{1}2-7[2:1],,
{2}7,1,
3,5,
{4}7,1,7,1,
7,8,7,8,
1,8,1,8,
1,7,1,7,
1,3,1,3,
1,2,1,2,
3,2,3,2,
7,2,7,2,
6b,,8,1/8,
,2,8,1/8,
3,,1,1/8,
,7,1,1/8,
8,2,7,2/7,
,1,7,2/7,
1,7,2,2/7,
,8,2,2/7,
8,1,2,2/8,
,8,2,2/8,
1,8,7,1/7,
,1,7,1/7,
1,1/7,7,2/7,
2,2/8,8,1/8,
1,1/7,7,2/7,
2,2/6,6,1/6,
1,1/7,7,2/7,
2,2/8,8,3/8,
3,3/7,7,2/7,
2,2/8,8,1/8,
1-4[2:1],
E
&lv_3=7.8
&des_3=-
&inote_3=(130){1},,,
{4}1,2,3,,
8,7,6,,
1/2,2/3,3/4,,
7/8,6/7,5/6,,
1/2,2/3,3/4,4/5,
5/6,6/7,7/8,1/8,
2/7h[2:1],1,8,7/8,
,1/7h[4:1],8,7/8,
2h[2:1]/7,8,1,1/2,
,2h[4:1]/8,1,1/2,
1/8h[2:1],2,3,3/8,
,2/8h[4:1],3,3/8,
1h[2:1]/8,7,6,1/6,
,1h[4:1]/7,6,1/6,
{1}2>5[2:1],,
{2}7h[2:1],6h[2:1],
7h[2:1],6h[2:1],
{1}7<4[2:1],,
{2}2h[2:1],3h[2:1],
2h[2:1],3h[2:1],
{4}4,5,4,3,
4,5,4,3,
4,6,4,2,
4,6,4,2,
5,4,5,6,
5,4,5,6,
5,3,5,7,
5,3,5,7,
5,4,3<6[2:1],,
{1},
{4}4,5,6>3[2:1],,
{1},
{8}2,,2,2,2,,8b,,
,3,3,3,3,,8b,,
7,,7,7,7,,1b,,
,6,6,6,6,,1b,,
3,,3,3,3,,5,,
,2,2,2,2,,5,,
7,,7,7,7,,4,,
,6,6,6,6,,4,,
1,,1,1,1-6[4:1],,,,
,2,2,2,2-5[4:1],,,,
8,,8,8,8-3[4:1],,,,
,7,7,7,7-4[4:1],,,,
3,,3,3,3-7[4:1],,,,
,4,4,4,4-8[4:1],,,,
6,,6,6,6-2[4:1],,,,
,5,5,5,5-1[4:1],
E
&lv_4=9.5
&des_4=maimai TEAM
&inote_4=(130){1},
{8}7,,7,7,7,,8,,
,6,6,6,6,,7,,
5,,5,5,5,,6,,
,4,4,4,4,,5,,
3,,3,3,3,,4,,
,2,2,2,2,,3,,
{4}1,2,3,4,
5,6,7,8,
{8}1,,1,1,1,,2/6,,
,3,3,3,3,,4/8,,
4,,4,4,4,,1/5,,
,6,6,6,6,,3/7,,
8,,8,8,8,,3/7,,
,6,6,6,6,,1/5,,
4,,4,4,4,,3/7,,
,2,2,2,2,,1/5,,
{1}6-1[4:3],
2-5[4:3],
{8}2h[4:1],,,,1,,2,3,
,4,4,,1h[128:17],,2,3,
,4,4-8[2:1],,,,,,
{1}1-5[2:1],
{8}2h[4:1],,,,1,,2,3,
,4,4,,1h[128:17],,2,3,
,4h[8:13],5,,5,,5,,
{4}5,5,5,5,
4h[4:7]/6,6,6,6,
6,6,6,6,
{8}7h[2:1],,,,,6,6,6,
{1}6h[4:3],
{2}7h[4:1],8h[4:1],
1h[4:1],2h[4:1],
{8}7,,7,7,7,,8,,
,6,6,6,6,,7,,
5,,5,5,5,,6,,
,4,4,4,4,,5,,
1/7,,1/7,1,1/7,,2/6,,
1,3,1/3,3,1/3,,4/8,,
2/4,,2/4,4,2/4,,1/5,,
2,6,2/6,6,2/6,,1/5,,
4/8,,4/8,8,4/8,,3/7,,
2,6,2/6,6,2/6,,1/5,,
4/8,,4/8,4,4/8,,3/7,,
6,2,2/6,2,2/6,,1/5,,
1/7,,1/7,1,1/7,,2/6,,
1,3,1/3,3,1/3,,4/8,,
2/4,,2/4,4,2/4,,1/5,,
2,6,2/6,6,2/6,,1/5,,
4/8,,4/8,8,4/8,,3/7b,,
2,6,2/6,6,2/6,,1/5b,,
4/8,,4/8,4,4/8,,3b/7,,
6,2,2/6,2,2/6,,1-5[2:1]/5,
E
&lv_5=10.7
&des_5=譜面-100号
&inote_5=(130){1},,,,,
{4}3,4,5,6,
7,8,1,2,
3/7,4/8,1/5,2/6,
3/7,4/8,1/5,2/6,
{8}3/7,,4/6,5,4/6,,3/7,,
,,2/8,1,2/8,,3/7,,
2/6,,3/5,4,3/5,,2/6,,
,,1/7,8,1/7,,2/6,,
1/5,,2/4,3,2/4,,1/5,,
,,6/8,7,6/8,,1/5,,
4/8,,5/7,6,5/7,,4/8,,
,,1/3,2,1/3,,4/8,,
{4}5,5,5,5,
5,5,5,5,
3>8[2:1]/5,5,5,5,
5/7>2[2:1],5,5,5,
4,4,4,4,
4,4,4,4,
4/6<1[2:1],4,4,4,
2<7[2:1]/4,4,4,4,
{8}5,4,3h[4:1],,5,4,3h[4:1],,
4,5,6h[4:1],,4,5,6h[4:1],,
4,3,2h[4:1],,4,3,2h[4:1],,
5,6,7h[4:1],,5,6,7h[4:1],,
3,2,1h[4:1],,3,2,1h[4:1],,
6,7,8h[4:1],,6,7,8h[4:1],,
2,1,8h[4:1],,2,1,8h[4:1],,
7,8,1h[4:1],,7,8,1b,,
{1}3-8[2:1]/7-4[2:1],
1>4[2:1]/5<8[2:1],
2-5[2:1]/6-1[2:1],
4>1[2:1]/8<5[2:1],
{8}1,,7,8,1-4[4:1],,8-5[4:1],,
,,3,2,1-6[4:1],,2-5[4:1],,
,,2,1,8-5[4:1],,1-4[4:1],,
,,6,7,8-3[4:1],,7-4[4:1],,
,,6,5,4h[2:1],,2-6[4:1],,
,,3,4,5h[2:1],,7-3[4:1],,
,,8,1,2-6[4:1],,7h[2:1],,
,,1,8,7-3[4:1],,2b,,
8-3[4:1],,7,6,5,,4b,,
3-6[4:1],,2,1,8,,7b,,
6-1[4:1],,5,4,3,,2b,,
1-4[4:1],,8,7,6,,5b,,
4-7[4:1],,3,2,1,,8b,,
7-2[4:1],,6,5,4,,3b,,
2-5[4:1],,1,8,7,,6b,,
5-8[4:1],,4,3,2,,1-4[4:3],
E
&lv_6=12.7
&des_6=はっぴー
&inote_6=(130){1},
{4}6h[2:3],,8>5[4:3],8b,
{1},
{4}3h[2:3],,1<4[4:3],1b,
{1},
{4}6,6h[4:5],8>5[4:3],8b,
{1},
{4}3,3h[4:5],1<4[4:3],1b,
{1},
{4}2/7,1-4[8:1]/8,1/8-5[8:1],1b/8b,
2/7,1-5[8:1]/8,1/8-4[8:1],1b/8b,
2/7,1/8-5[8:1],1-4[8:1]/8,1b/8b,
2/7,1/8-4[8:1],1-5[8:1]/8,1b/8b,
3/8,1/2-5[8:1],1-6[8:1]/2,1b/2b,
3/8,1-5[8:1]/2,1/2-6[8:1],1b/2b,
1/6,7-4[8:1]/8,7/8-3[8:1],7b/8b,
1/6,7/8-4[8:1],7-3[8:1]/8,7b/8b,
2/8-5[8:1],2/8,1-4[8:1]/2,1b/2b,
2/8-4[8:1],2/8,1-5[8:1]/2,1b/2b,
2/8v5[8:1],2/8,1v4[8:1]/2,1b/2b,
2/8<5[8:1],2/8,1p4[8:1]/2,1b/2b,
1-4[8:1]/7,1/7,7/8-5[8:1],7b/8b,
1-5[8:1]/7,1/7,7/8-4[8:1],7b/8b,
1v4[8:1]/7,1/7,7/8v5[8:1],7b/8b,
1>4[8:1]/7,1/7,7/8q5[8:1],7b/8b,
1-4[8:1]/8,1/8-5[8:1],4-1[8:1]/8,4b/5b,
1/8-5[8:1],1-4[8:1]/8,1/5-8[8:1],4b/5b,
1>4[8:1]/8,1/8<5[8:1],4-1[8:1]/8,4b/5b,
1/8<5[8:1],1>4[8:1]/8,1/5-8[8:1],4b/5b,
1/2-5[8:1],1-6[8:1]/2,1/5-2[8:1],5b/6b,
1/2>5[8:1],1<6[8:1]/2,1/5-2[8:1],5b/6b,
7-4[8:1]/8,7/8-3[8:1],4-7[8:1]/8,3b/4b,
7<4[8:1]/8,7/8>3[8:1],4-7[8:1]/8,3b/4b,
2-5[8:1]/7,2/7-4[8:1],1-5[8:1]/7b,1b/8b,
2/7-4[8:1],2-5[8:1]/7,2b/8-4[8:1],1b/8b,
2-5[8:1]/7,2/7-4[8:1],1-5[8:1]/7b,1b/8b,
2/7-4[8:1],2-5[8:1]/7,2b/8-4[8:1],1b/8b,
2-5[8:1]/7,2/7-4[8:1],1-5[8:1]/7b,1b/8-4[8:1],
1-5[8:1]/8,1b/7-4[8:1],2-5[8:1]/7b,2b/7b,
2/7-4[8:1],2-5[8:1]/7,2b/8-4[8:1],1-5[8:1]/8b,
1/8-4[8:1],2-5[8:1]/8b,2b/7-4[8:1],2b/7b,
2-5[8:1]/7,2/7-4[8:1],1>4[8:1]/7b,1b/8<5[8:1],
1-5[8:1]/8,1b/7-3[8:1],2-6[8:1]/7b,2b/7b,
2/7-4[8:1],2-5[8:1]/7,2b/8<5[8:1],1>4[8:1]/8b,
1/8-4[8:1],2-6[8:1]/8b,2b/7-3[8:1],2b/7b,
2-5[8:1]/7b,2b/7-4[8:1],1-4[8:1]/7b,1b/8-5[8:1],
4-1[8:1]/8b,4b/5-8[8:1],1-5[8:1]/5b,1b/8b,
2b/7-4[8:1],2-5[8:1]/7b,2b/8-5[8:1],1-4[8:1]/8b,
1b/5-8[8:1],4-1[8:1]/5b,4b/8-4[8:1],1b/8b,
2-5[8:1]/8b,2b/8-4[8:1],5-1[8:1]/8b,4-8[8:1]/5b,
1>4[8:1]/4b,1b/8<5[8:1],4-8[8:1]/8b,4b/5b,
1b/7-4[8:1],1-5[8:1]/7b,1b/4-8[8:1],4b/5-1[8:1],
5b/8<5[8:1],1>4[8:1]/8b,1b/5-1[8:1],4b/5b,
2b/7b,
E
