&title=恋愛サーキュレーション
&artist=「化物語」 [cover]
&first=0
&wholebpm=120
&shortid=20
&genreid=101
&genre=POPS&アニメ
&versionid=0
&version=maimai
&clock_count=4
&chartconverter=MaiChartManager v26.3
&ChartConvertTool=MuConvert
&ChartConvertToolVersion=0.4.0-rc.7+47834d4
&lv_2=4.0
&des_2=-
&inote_2=(120){1},
{4}7,,6,6,
3,,2,2,
{2}1,8,
{4}7,,2/7,2/7,
3,4,5h[4:1],,
6,7,8h[4:1],,
,7/8,,1/2,
{8}1,,8,,,7,7,,
{4}6,5,4h[4:1],,
3,2,1h[4:1],,
,1/2,,7/8,
8,1,2,,
7,7,8,8,
1,1,2,2,
,{2}3,{4}4,
4,,6,6,
7,7,8,8,
2,2,1,1,
6,6,5,5,
3,3,3,,
{1}2-6[4:1],
{4},,7,7,
{2}6h[4:1],3h[4:1],
{4}2,1,1/8,,
{1}7-2[4:1],
{4},,3,3,
{2}2h[4:1],7h[4:1],
{4}7,8,1/8,,
2,1/2,7,7/8,
,{2}8,{4}1,
2,1/3,7,6/8,
,{2}7,{4}2,
2,2/8,7,1/7,
,{2}8,{4}1,
1,1/3,8,6/8,
{1}7b,
{4}2,,7/8,7/8,
7,,1/2,1/2,
{2}3,4,
{4}5,,4/5,4/5,
6,,1/8,1/8,
3,,1/8,1/8,
{2}2,3b,
{4}3/6,3/6,4/5,
E
&lv_3=6.4
&des_3=-
&inote_3=(120){1},
{4},8-5[4:1],,,
,1-4[4:1],,,
,{2}7,{4}2,
3/6,3/6,1b/8b,7,
7,1,2,8,
6,7,3,2,
7h[4:1],6,2h[4:1],3,
{8}2,,1/3,,,1,1,,
{4}7,1,2,8,
6,7,3,2,
7h[4:1],6,2h[4:1],3,
7,3<8[4:1],,,
,7,6,2/7,
5h[4:1],6,6h[4:1],7,
7h[4:1],6,5/7,4,
3/6,,1/8,1/8,
7,4/7,5,4/5,
4,3,2,1,
2>7[4:1],,,6,
8,1,2/6,,
8,6,8,6,
1,3,1,3,
{2}4h[4:1]/6h[4:1],3h[4:1]/5h[4:1],
{4}3/6,3/6,2/7,,
8,6,8,6,
1,3,1,3,
{2}4h[4:1]/6h[4:1],3h[4:1]/5h[4:1],
{4}3/6,3/6,2/7,,
2,8h[2:1],7,1,
2h[4:1],1,7h[4:1],8,
2/3,1,6/7,8,
1/2,3,7/8,6,
5,6,7h[4:1],,
4,3,2h[4:1],,
5,4,5,4<7[4:1],
{2},2/7,
{4},8<5[4:1],,,
,1>4[4:1],,,
8,7,1,2,
3/6,3/6,1b/8b,,
8,3/7,1,2/6,
8,3/7,1,2/6,
3h[2:1]/6h[8:3],,7,2,
{2}3h[4:1]/6h[4:1],1/8,
E
&lv_4=7.8
&des_4=譜面-100号
&inote_4=(120){1},
{16}8,,,8<5[16:5],,,,,,,,,,,,,
1,,,1>4[16:5],,,,,,,,,,,,,
8,,,2/7,,,,,1,,,2/7,,,,,
3/6,,,3/6,,,8,,1b,,,,,,,,
{8}7,8,1,,2,1,8,,
7,,6,,1,2,3,,
{4}2/7h[4:1],6,2h[4:1]/7,3,
{8}8,,3,,6,1,1,,
2,1,8,,7,8,1,,
2,,3,,8,7,6,,
{4}2h[4:1]/7,3,2/7h[4:1],6,
3,8-5[4:1],,,
2,3,4/5,3/6,
7,6,4/5,3/6,
6h[4:1],4,3h[4:1],5,
{1}8,
{8}6/7,,5/6,,8,7,6,,
2/3,,3/4,,1,2,3,,
1,8,7,6,5,4,,,
8,1,2,3,4,5,,,
{4}7/8,1/6,7/8,1/6,
1/2,3/8,1/2,3/8,
{16}6h[16:3],,,4,,,4,,3h[16:3],,,5,,,5,,
6,,,5,,4,,,3h[4:1],,,,,,,,
{4}1/2,3/8,1/2,3/8,
7/8,1/6,7/8,1/6,
{16}3h[16:3],,,5,,,5,,6h[16:3],,,4,,,4,,
3,,,6,,4,,,5h[4:1],,,,,,,,
{4}7h[4:1],8h[4:1],1h[4:1],2h[4:1],
3h[4:1],4,6h[4:1],5,
2h[4:1],1h[4:1],8h[4:1],7h[4:1],
{8}6h[4:1],,5,,3h[4:1],4b,4b,,
{4}6h[4:3],5,4,3,
3h[4:3],4,5,6,
4/5,3/4,4/5,3/4<7[2:1],
{1},
{16}8,,,8,,,8<5[8:3],,,,,,,,,,
1,,,1,,,1>4[8:3],,,,,,,,,,
8,,,2/8,,,8,,1,,,1/7,,,1,,
7,,,4,,5,,,2b,,,,,,,,
{4}7/8,3/7,1/2,2/6,
7/8,3/7,1/2,2/6,
2h[4:1]/8,5,1/7h[4:1],4<7[4:1],
,5>2[4:1],
E
&lv_5=9.9
&des_5=ニャイン
&inote_5=(120){1},
{16}3h[8:1],,,3,,,,,2h[8:1],,,2,,,,,
6h[8:1],,,6,,,,,7h[8:1],,,7,,,,,
2h[8:1],,,2,,,,,7h[8:1],,,7,,,,,
3h[8:1],,,3,,,,,6h[4:1],,,,1,,,,
{8}2/8,1,2/8,,2/8,1,3/8,,
3/7,5,3/7,,3/7,5,4/7,,
4/6,5,4/6,,4/6,5,3/6,,
3/5,4,4/5,,4/5,7b,7b,,
2/8,1,2/8,,2/8,1,2/7,,
1/7,8,1/7,,1/7,8,1/6,,
2/6,4,2/6,,2/6,4,2/5,,
3/5,4,3/5,,4/5,,,1,
1,8,1,7,8,7,1,8,
{16}8,,1,,8,,2,,1,,2,2,,,,6,
6,,6,6,,,,3,3,,3,3,,,,,
{1}1-5[2:1]/8-4[2:1],
{16}7,1,7,1,7,,,,7/8,,7/8b,,,,,,
2,8,2,8,2,,,,1/2,,1b/2,,,,,,
{8}8,1,7,2,6,4/5,2/7,,
4,5,3,6,2,1/8,3/6,,
6,7,8-3[2:1],,,,2,1,
1-6[2:1],,,,5,4,3,2,
{16}7,6,,7,,,7,,2,3,,2,,,2,,
8,,,8,,1,8,,7,,8b,,8b,,,,
{8}3,2,1-6[2:1],,,,7,8,
8-3[2:1],,,,4,5,6,7,
{16}3,2,,2,,,3,,6,7,,7,,,6,,
1,,8,1,,8,1,,8,,,,3b/6b,,,,
{4}1h[4:1]/8,2,1/8h[4:1],7,
{8}2h[8:1],7h[8:1],3h[8:1],6h[8:3],,,,,
{4}4h[4:1]/5,3,4/5h[4:1],6,
{8}4h[8:1],5h[8:1],3h[8:1],6h[8:3],,,,,
{4}1/2h[4:1],3,7h[4:1]/8,6,
{8}1h[8:1],8h[8:1],2h[8:1],7h[8:3],,,,,
{2}2-5[8:1],7-4[8:1],
{1}1-4[2:1]/8-5[2:1],
{16}8,,,8,,2,1,2,1,,,1b,,8,7,8,
7,,,7,,1,2,1,2,,,2b,,,6,,
6/7,,,6/7,,,3,,2/3,,,2/3,,,5,,
4/5,,,3/6,,,4/5,,1/8,,2b,,2b,,7,,
6/8,,,7,,,6/8,,2/7,,,2/7,,,1,,
2/8,,,1,,,2/8,,1/5,,,1/5,,,3,,
2/4,,,3,,,2/4,,3/7,,,3/7,,,1,,
8,,1,8,,1,8,,1b,
E
