&title=コネクト
&artist=ClariS 「魔法少女まどか☆マギカ」
&first=0
&wholebpm=175
&shortid=21
&genreid=101
&genre=POPS&アニメ
&versionid=0
&version=maimai
&demo_seek=67.82
&demo_len=10.18
&clock_count=4
&chartconverter=MaiChartManager v26.3
&ChartConvertTool=MuConvert
&ChartConvertToolVersion=0.4.0-rc.7+47834d4
&lv_2=5.0
&des_2=-
&inote_2=(175){1},,
7,
{8}8,,,1,,1,,,
{1}2,
{4}3,3,,,
{1}2,
{8}1,,,8,,8,,,
{1}7-3[2:1],,
{4}2,2,2,,
,1,,8,
7,7,7,,
,6,,5,
4,4,4,,
,3,,2,
{2}1,7,
5,3,
{4},2,2,,
,3,3,,
,4,4,,
,5,5,,
,6,,7,
,{2}8,{4}1,
{2}1,2,
{1}3-6[2:1],
{4},6,6,,
,5,5,,
,4,4,,
,3,3,,
,2,,1,
,{2}8,{4}7,
{1}7-2[2:1],,
{4},4,,5,
,{2}6,7,
8,8,
8,8,
7,6,
5,4,
3,3,
3,3,
4,5,
6,7,
8,8,
8,{4}8,
1,1b,,,
2,2b,,,
{1}1h[2:1]/6h[2:1],
8-4[2:1],
{4},3,,3,
,{2}1,2,
1,1,
8,7,
6,6,
5,{4}4,
,3,2,1,
8,7,,7,
,{2}6,{4}6,
{8},,,7/8,,1/8,,1/2,
{4},5,,5,
,{2}4,3,
2,1,
8,{4}7,
{1}8h[4:3],
{2}1h[4:1]/8h[4:1],2h[4:1]/7h[4:1],
{1}3h[4:3]/6h[4:3],
{4},2,1,2,
3,3,3,,
,7,8,7,
6,6,6,,
,7,,7,
,{2}7,{4}7,
,6,7,8,
{1}1h[4:7],,
2h[4:7]/7h[4:7],
E
&lv_3=7.3
&des_3=-
&inote_3=(175){1},,
8-5[2:1],
{8},,,1,,1,,,
{1}2h[4:3],
{4}3,3,,,
{1}6-3[2:1],
{8},,,8,,8,,,
{2}6h[2:1],3h[2:1],
{384}7h[4:3],{4},,{384}2h[384:95],,,,,,,,,,,,,,,,,,,,,,,,,,,,,,,,,,,,,,,,,,,,,,,,,,,,,,,,,,,,,,,,,,,,,,,,,,,,,,,,,,,,,,,,,,,,,,,,,,,,,,,,,,,,,,,,,,,,,,,,,,,,,,,,,,,,,,,,,,,,,,,,,,,,,,,,,,,,,,,,,,,,,,,,,,,,,,,,,,,,,,,,,,,,,,,
{4}6,7,6/8,,
,2h[2:1],1,1,
8,1,2/8,,
,3h[2:1],4,4,
3,2,1/3,,
,7h[2:1],8,8,
{1}7-2[2:1],
3-6[2:1],
{4},1/7,8,,
,2/7,1,,
,2/8,1,,
,2/7,8,,
,5,,6,
,{2}7,{4}8,
{2}6h[2:1],3h[2:1],
7h[2:1],2h[4:1],
{4},7/8,2,,
,1/2,7,,
,1/8,7h[4:5],,
,2,2,,
,1,,2,
,{2}3,{4}4,
{1}5<8[2:1],
1>4[2:1],
{4}1,2,3,4,
5,6,7,8h[1:2],
,{2}2,4,
2,{4}4,
5,4,3,2,
1,8,7,1h[1:2],
,{2}7,5,
7,{4}5,
7,8,1,2,
3,4,5,6,
,{2}5/6,3/4,
1/2,{4}7/8,
{1}5-8[2:1],
1-4[2:1],
2h[4:3]/7h[4:3],
7-4[2:1]/8-3[2:1],
{4}2/8h[1:1],3,2,3,
{8},,8,8,,,7,,
{4}6h[384:383]/8,1,8,1,
{8},,7,2/7,,,2/7,,
{4}1/3h[1:1],8,1,8,
{8},,5,5,,,7,,
{4},1/8,2/7,3/6,
{1}4>1[2:1]/5<8[2:1],
{4}2/8h[1:1],3,2,3,
{8},,8,8,,7,,5b/6b,
{4},4,5,4,
{8},,2/7,7,,,2/7,,
{1}5-8[2:1],
{4}8,7,6,5,
{2}6h[2:1],8h[2:1],
{1}2h[2:1],
4-1[2:1],
{4},6,,6,
6,6,6,,
,3/4,,5/6,
4,3/5,4/6,,
,1/7,,2/8,
{8}3,,,{384}6,{8},,,{384}4h[384:383]/5h[384:383],,,,,,,,,,,,,,,,,,,,,,,,,,,,,,,,,,,,,,,,,,,,,,,,,,,,,,,,,,,,,,,,,,,,,,,,,,,,,,,,,,,,,,,,,,,,,,,
{1},
6>3[2:1],
2<7[2:1],
4-1[2:3],
E
&lv_4=8.5
&des_4=maimai TEAM
&inote_4=(175){1},
{8},,,,8,8,1,1,
2,,,3,3,3,,4,
4,4,,1,,2,,2,
,,,3,3,3,,4,
4,5,5,6,,8,8,7,
7,,,6,6,6,,5,
5,5,,1,,8,,7h[8:13],
,,,,,5,4,3h[8:5],
{4},,,5-8[4:1],
{8},,1,,3,3,,2,
,1,,8,8,,7,,
2,,8,,6,6,,7,
,8,,1,1,,2-7[4:1],,
,,1,,3,3,,2,
,1,,8,8,,7,,
{4}6,5,4,3,
{2}2-6[4:1],7-3[4:1],
{8},,6,,8,8,,1,
,,3,,1,1,,8,
,,6,,8,8,,1,
,,3,,1,1,,8,
,,6,,8,8,,1,
,,3,,1,1,,8,
{2}7h[2:1],8h[2:1],
1h[2:1],2h[2:1],
{8},,7,,5,5,,4,
,,2,,4,4,,5,
,,7,,5,5,,4,
,,2,,4,4,,5,
,,7,,5,5,,4,
,2,4,4,5,,6-1[4:1],,
,,,2-5[8:3],,,,,
,,,,,,8,1,
8,,7,,6,,2,3,
{4}2,1,8,7,
7,8,1,2,
{8}3,,4,,5,,4,5,
4,,3,,2,,6,7,
{4}6,5,4,3,
{8}2,,1,,8,,7,7,
,,6,,6,,8,1,
8,,7,,6,,2,3,
{4}2,1,8,7,
7,8,1,2,
{8}3,,4,,5,,4,5,
{1}4-7[4:1],
8-3[4:1],
1h[4:3]/6h[4:3],
7-3[4:1]/8-4[4:1],
{8}2,,,3,3,3,,4,
4,4,,1,,2,,2,
,,,3,3,3,,4,
4,5,5,6,,8,8,7,
7,,,6,6,6,,5,
5,5,,8,,7,,7h[4:3],
,,,,,6,5,4,
,,,,8,8,1,1,
2,,,3,3,3,,4,
4,4,,7b/8b,,1b/8b,,1b/2b,
,,,3,3,3,,4,
4,5,5,6,,1,,2h[8:3],
{4},,4,3,
{8}2,,1,1,,8,,7h[8:7],
{4},6,5,4,
{2}3h[4:1]/8h[4:1],2h[4:1]/7h[4:1],
{8}1h[4:7]/6,,5,,4,4,,7,
,6,,5,5,,7,,
2,,8,,6,6,,7,
,8,,1,1,,2-7[4:1],,
,,1,,3,3,,2,
,1,,8,8,,7-4[4:1],,
{4},,3,2-5[4:1],
,,6,7>2[4:1],
,,3,2-7[4:1],
,,8,1,
2h[4:7]/7h[4:7],
E
&lv_5=12.0
&des_5=チャン@DP皆伝
&inote_5=(175){1},
{4},,7,8-5[2:1],
1,,,6-3[2:1],
7,,,4-1[2:1],
5,,,2-7[2:1],
3,,,8-4[2:1],
1,,,5-1[384:191],
6,,,6-3[1:1]/7-2[1:1],
{1}6/7,
{4},,,8-5[4:1],
{8}1h[8:7],,,,,,,2h[8:5],
{4},,3,7-4[4:1],
{8}2h[8:5],,,,,1h[4:1],,2h[8:7],
{4},,,1-4[2:1],
{8}5h[8:7],,,,,,,6h[8:5],
{4},,7,8-3[2:1],
6h[4:3],,,1,
{2}3h[4:1]/7h[4:1],2h[4:1]/6h[4:1],
{4}8-5[4:1],3,2,,
4-7[4:1],2,3,,
6-3[4:1],8,7,,
{2}1-5[4:1],8-4[4:1],
{4}5-1[4:1],5,2,,
3-8[4:1],3,7,,
{2}7<4[8:1]/8>3[8:1],5>2[8:1]/6<1[8:1],
1>4[8:1]/8<5[8:1],4-8[8:1]/5-1[8:1],
{8}1,,7-4[8:1],,7,,,7h[8:3],
,,2,2,,8-5[8:1],,,
,,6,,3,3,,2h[8:5]/7h[8:5],
,,,,,1,8-4[8:1],7,
6-3[8:1],,,,4,5,,6,
,1/7h[2:1],2,1,2,,1/8-5[8:1],,
4-7[8:1],,,6-2[8:1],,,8h[4:3],,
,,,,,,8-5[8:1],,
{4}3,3/5-1[8:1],3,1-6[8:1]/3,
3,3/6-2[8:1],3,2-7[8:1]/3,
3,3/7-4[8:1],3,3/4-1[8:1],
3,1-6[8:1]/3,3,3-8[8:1]/6,
6,6/8-4[8:1],6,4-1[8:1]/6,
6,1-5[8:1]/6,6,5-8[8:1]/6,
6,6/8-3[8:1],6,3-7[8:1]/6,
6,6/7-2[8:1],6,2-5[8:1]/6,
{8},,5-1[384:49],,,,1-4[8:1],8,
{4},,6-3[384:49],2-5[8:1],
{8}7-4[8:1],,,7,,,5-2[8:1]/6-1[8:1],,
{4},,1/8-4[8:1],8,
{8}7-4[8:1],,7,5,,8-5[8:1],,8,
,,5,4,,3,,2-7[8:7]/6-3[8:7],
{1},
{8},,,,8>3[8:1],7<4[8:1],,,
2-7[8:1],,,6-3[8:1],6,,,8,
7-2[8:1],8,,6-3[8:1],,,,4-1[384:47],
,,,{2}5-8[8:1],{8}6,
1>4[8:1],8<5[8:1],,,,5-2[8:1],6-1[8:1],,
,,,5-2[8:1],5,,,3,
2,1-4[8:1],,8-5[8:1],,1-4[8:1],,7h[8:5],
,,,,,3/8,4/7,5-2[4:1]/6-1[4:1],
,,,,8-4[8:1],1-5[8:1],,,
8,,,7,2,6,,3,
4,5h[4:3],,1b,,6b,,3b,
,,,6,5,4,,3,
2,1-6[8:1],1,1-5[8:1],,1-4[8:1],,,
{4},,6h[4:1],1,
{8}2,,3,4,,7,,2,
{4},,,7-3[8:1],
,{2}1-5[8:1],{4}5-2[1:1]/6-1[1:1],
{1},,
{8}6h[4:7],,3,,2,2,,1,
{1},
{8}1h[8:7],,,,,,,2h[8:5],
{2},3h[2:1],
{1}2h[4:5],
{4},,1,8,
{2}8-4[8:1],4-7[8:1],
7-2[8:1],2-5[8:1],
5-1[4:3],
E
