&title=In Chaos
&artist=Hiro「Crackin’DJ」
&first=0
&wholebpm=140
&shortid=22
&genreid=104
&genre=ゲーム&バラエティ
&versionid=0
&version=maimai
&demo_seek=23
&demo_len=14
&clock_count=4
&lv_2=6.0
&des_2=-
&inote_2=(140){1},,,,,,
{4},2,,2,
,2h[2:1],,,
,{2}7,7,
7,1/8,
7,7,
7h[2:1],,
2,2,
,{4}2/7,
6,6,7,,
3,3,2,,
7,7,6,,
8,8,,,
1,8,7,,
8,1,2,,
1,8,7,,
1/8,1/8,,2,
,{2}3,3,
6,6,
3,{4}3,
{2},6b,
{1}7-2[2:1],
{8},,,,,1,8,,
{1}7-2[2:1],
{4},,,2,
{1}2-7[2:1],
{8},,,,,8,1,,
{1}2-7[2:1],
{4},,,3/6,
{8},,4,,,,5,5,
,,4,,,,3,3,
{4},2,,3,
{8}4,,,5,,,4,,
,,5,,,,4,4,
,,5,,,,6,6,
,,7,,,,6,6,
{4},,,1/8,
,5/6,,,
,3/4,,,
,4/5,,,
6,5,4,3,
,3/4,,,
,5/6,,,
,4/5,,,
{16}3,,,3,,,3,,6,,,,,,,,
,,,,,,,,1/8,,,1/8,,,1/8,,
,,,,,,,,1/2,,,1/2,,,1/2,,
,,,,,,,,7/8,,,7/8,,,7/8,,
{4},,4/5,4/5,
{8},,,,1,8,1,8,
,,,,1,2,1,2,
,,,,8,7,8,7,
,,,,8,1,8,1,
E
&lv_3=7.6
&des_3=-
&inote_3=(140){1},,,,,
7-2[2:1],
{8}1,,,1,,,1,,
,1,,2/8,,,,,
8,,,8,,,8,,
,8,,1/7,,,2,,
3,,,3,,,3,,
,3,,2/4,,,,,
5,,,5,,,5,,
3,,,3,,,1/8,,
7,,7,,8,8,,,
2,,2,,1,1,,,
3,,3,,4,4,,,
6,6,6,6,,2,2,,
,,1/7,,8,8,,,
8,,2/8,,1,1,,,
1,,1/7,,8,8,,,
1/8,,1/8,,,7,2b,,
{4}7,7,7,7,
2,2,2,2,
7,2/7,7,2/7,
{16}7,,,2,,,7,,,,1/8,,,,,,
1,7,,,,,1,7,,,,,,,,,
8,2,,,,,8,2,,,,,,,,,
3,5,,,,,3,5,,,,,,,,,
6,4,,,,,6h[8:3],,,,,,,,,,
6,6,,,,,6,6,,,,,,,,,
3,3,,,,,3,3,,,,,,,,,
8,8,,,,,8,8,,,,,,,,,
{8}7,,,7,,,3/6,,
,,6h[8:3],,,5h[8:3],,,
,,3h[8:3],,,4h[8:3],,,
,,1h[384:143],,,8h[8:3],,,
2,2,,7,7,,2,2,
,,7h[4:1],,6,6,,,
,,2h[4:1],,3,3,,,
,,8h[4:1],,1,1,,,
2,,,2,,,4/5,,
3,3,3-6[4:1],,,,,,
7,7,7-2[4:1],,,,,,
3,3,3-6[4:1],,,,,,
{1}1-4[4:1],
{8}6,6,6-3[4:1],,,,,,
2,2,2-7[4:1],,,,,,
6,6,6-3[4:1],,,,,,
{16}2,,,2,,,2,,1b/8,,,,,,,,
,,,,1,,,,1/8,,,8,,,7/8,,
,,,,8,,,,1/8,,,1,,,1/2,,
,,,,2,,,,1/2,,,2,,,2/3,,
{8},,4,,5,4,,,
{16},,,,6,,,,4/5,,,3/4,,,4/5,,
,,,,3,,,,4/5,,,5/6,,,4/5,,
,,,,7,,,,7/8,,,1/8,,,1/2,,
{8},,2,,1/2,1/8,7/8b,
E
&lv_4=9.7
&des_4=譜面-100号
&inote_4=(140){1},,
{8}2,,,2,,,2,,
,2,,2h[8:3],,,,,
7,,,7,,,7,,
{1}7-3[2:1],
{8}2,,2,4,,4,2,,
2,4,,4/8,,8,7,,
7,,7,5,,5,7,,
7,5,,1/5,,1,2,,
2,,2,4,,4,2,,
2,4,,4/8,,8,7,,
7,,7,5,,5,7,,
7,,,2,,,2/7,,
{16}4,,,,1/8,,,,3,,,7,,7,,,
5,,,,1/8,,,,6,,,2,,2,,,
4,,,,1/8,,,,3,,,7,,7,,,
{8}1,1,1,1,,3,4,5,
{16}6,,,,2/7,,,,3,,,1,,8,,,
5,,,,2/7,,,,6,,,8,,1,,,
6,,,,2/7,,,,3,,,1,,8,,,
{8}3,3,6,6,,1,5b,,
{4}7,7,7,7,
3,3,3,3,
8,8,8,8,
{16}5,,,5,,,3,,6,,4/5,,,,,,
{8}2/6,,,3/7,,1,2/8,,
3/7,,,2/6,,8,1/7,,
2/6,,,3/7,,1,2/8,,
8,,8,1/7,,1,2/8,,
3/7,,,2/6,,4,3/5,,
2/6,,,3/7,,5,4/6,,
3/7,,,2/6,,4,3/5,,
5,,5,4/6,,4,3/5,,
,,2,2,4,4,5,5,
,,7,7,5,5,4,4,
3,,1,1,8,8,7,7,
8,1,2,1,8,7,8,1,
,3,3,1,1,8,8,,
,6,6,8,8,1,1,,
,3,3,1,1,8,8,6,
6,,,6,,,2/7,,
{16},,,,1/5,,,,6,,,7,,,8,,
,,,,4/8,,,,3,,,2,,,1,,
,,,,1/5,,,,6,,,7,,,8-4[4:3],,
{1},
{16},,,,2/6,,,,3,,,2,,,1,,
,,,,3/7,,,,6,,,7,,,8,,
,,,,2/6,,,,3,,,2,,,1,,
8,,,7,,,6,,4/5,,,,4/5,,,,
,,,,1/8,,,,7/8,,,6/7,,,5/6,,
,,,,1/8,,,,1/2,,,2/3,,,3/4,,
,,,,1/8,,,,7/8,,,6/7,,,5/6,,
{8},4/5,4/5,,6,,3,,
{16},,,,1/7,,,,2,,2,4,,4,3,,
,,,,2/8,,,,7,,7,5,,5,6,,
,,,,1/7,,,,2,,2,4,,4,3,,
,,7,,8,,1,,2,,1,8,7b,,,,
{8}2,,,2,,,2,,
2-7[2:1],
E
&lv_5=12.5
&des_5=ニャイン
&inote_5=(140){1},,
{4},3,,3,
,{2}3,3,
3,{4}2-7[4:3]/3h[1:1],
{1},
{16}6,6,,,7,,6,6,,,5,,6,6,,,
7,,6,6,,,5,,,,6,,6/7,,,,
3,3,,,2,,3,3,,,4,,3,3,,,
2,,3,3,,,4,,,,2,,1/8,,,,
6,6,,,7,,6,6,,,5,,6,6,,,
7,,6,6,,,5,,,,6,,6/7,,,,
3,3,,,2,,3,3,,,4,,3,3,,,
{8}2,3,4,6,5,4,8,,
{16}6,,8,,7,,8,,5h[8:3],,,2,,2,,,
3,,1,,2,,1,,4h[8:3],,,7,,7,,,
1,,7,,8,,7,,3h[8:3],,,1,,8,,,
{8}7,7,7,7,,1,2,3,
4,,4/8,5,6,3/7,,6,
6,,1/5,4,3,2/6,,3,
3,,4/8,5,6,3/7,,2,
{16}8,,,8,1,,,1,,,1/8,,4/5,,,,
{4}2h[4:1],1h[4:1],8h[4:1],7h[4:1],
6h[4:1],5h[4:1],4h[4:1],3h[4:1],
2h[4:1],1h[4:1],8h[4:1],7h[4:1],
{16}5,,,3,,,1,,7,,8b,,,,,,
{8}1-4[4:1],,,8-5[4:1],,,,,
2-5[4:1],,,1-6[4:1],,,,,
7-4[4:1],,,8-3[4:1],,,,,
1-4[384:97],,,2-7[384:97],,,,,
8-5[4:1],,,1-4[4:1],,,,,
6-3[4:1],,,7-2[4:1],,,,,
8-3[4:1],,,7-4[4:1],,,,,
2-5[4:1],,,7-4[4:1],,,,,
{16},,,,2,,1,2,,2,6,,7/8,,2/7,,
,,,,8,,7,8,,8,4,,2/3,,1/2,,
1/8,,,,5,,6,5,,5,1,,2/3,,3/4,,
{8}7/8,1/6,4/8,1/2,3/8,1/5,2/7,1b/8b,
{16},,7,8,7,,2,,5,,8,,1/2,,2/3,,
,,2,1,2,,7,,4,,1,,7/8,,6/7,,
,,3,4,3,,7,,5,6,5,,3/4,,2/7,,
{8}5h[8:5],,,1h[4:1],,,3b/7b,,
{16},,,,1/5,,,,2,3,2,,4,3,,,
,,,,4/8,,,,7,6,7,,5,6,,,
,,,,2/7,,,,3,4,3,,6,5,,,
1h[1:1],,7,,,6,,,5,,,4,,,3,,
,,,,3/8,,,,6,4,6,5,,3,4,,
,,,,1/6,,,,3,5,3,4,,6,5,,
,,,,4/8,,,,3,5,3,4,,7,6,,
1/5,,,4/8,,,1/5,,3/7,,,,,,,,
{8},,1h[8:3],3,5,7h[8:3],5,3,
,,8h[8:3],6,4,2h[8:3],4,6,
,,7h[8:3],5,3,1h[8:3],3,5,
{16}7,,,,1,2,1,,8,,7,6,,7b,,,
8,,1/2,,3,4,3,,2,,1,8h[16:5],,7,,,
1,,7/8,,6,5,6,,7,,8,1h[16:5],,2,,,
8,,1/2,,3,4,3,,2,,1,8h[16:5],,7,,,
,,7,8,1,,2,,3,4,3,,2b,
E
&lv_6=14.8
&des_6=チャン@DP皆伝
&inote_6=(140){1},
{8}1,,2,,,8b,8b,,
2,,,2,,,2,,
,2,,7,,7,2,,
2,,,2,,,2,,
{16},,,,,,,8,1,8,1,8,{32}1,2,3,4,8,7,6,5,
{16}2-5[8:1],2,1/3,,2,,7,7,8,8,1-4[8:1]/7,,7/8,,1/8,,
6-1[8:1],6,4/5,,4,,2,2,8,8,1/7,,8,8,3,3,
7-4[8:1],7,6/8,,7,,2,2,1,1,2/8-5[8:1],,1/2,,1/8,,
3-8[8:1],3,4/5,,5,,7,7,1>5[8:1],1,2/8,,{32}5,6,7,8,1,,,,
{16}7-4[8:1],7,6/8,,7,,2,2,1,1,2/8-5[8:1],,1/2,,1/8,,
3-8[8:1],3,4/5,,5,,7,7,1,1,2/8,,1,1,6,6,
2-5[8:1],2,1/3,,1/2,,7,7,8,8,1-4[8:1]/7,,7/8,,1,,
7,7,8,8,1/7,,2,2,1>5[8:1],1,2/8,,{32}5,6,7,8,1,,,,
{16}8,,3/5,,1,,4/6,,8-3[16:1],3-8[16:1],1/2,,8,,,,
1,,4/6,,8,,3/5,,1-6[16:1],6-1[16:1],7/8,,1,,,,
,,1,2,7,6,2,3,6-3[16:1],3-6[16:1],4/5,,6,,,,
1>5[8:1]/2>6[8:1],,5<1[8:1]/6<2[8:1],,1/2,,,,,,{32}1,8,1,8,2,3,{16}4,{32}7,6,5,,
{8}8,3/5,8,3v8[8:1]/5v8[8:1],8,3/5,7,3/5,
1,4/6,1,4v1[8:1]/6v1[8:1],1,4/6,2,4/6,
5,2/8,5,2v5[8:1]/8v5[8:1],5,2/8,6,2/8,
{16}1-4[8:1]/7,,8,8,1/7-4[8:1],,8,8,1/7,,1b,,{32}1b/5b,2/6,3/7,4/8,1/5,,,,
{4}5<1[8:1],5>1[8:1],5w1[8:1],5,
3V17[8:1],3V57[8:1],3w7[8:1],3,
7<3[8:1]*V53[8:1],7>3[8:1]*V13[8:1],7w3[8:1],7,
{16}1/5,,,2/6,,,3/7,,4/8,,{32}4/8,3/7,2/6,1/5,{4}4/8,
{16}2,2,1,1,2/8,,1<7[8:1],8,1>3[8:1],,1-5[8:1],,1,,1,,
3,3,4,4,3/5,,6<8[8:1],6,3>8[8:1],,6v1[8:1],,3,,6,,
4,4,5,5,3/6,,8-4[8:1],8,4pp6[8:1]*qq2[8:1],,8,,,,,,
8,1,8,1,7/8,,{32}1,2,3,4,5,6,7,8,1,2,3,4,5,6,7,8,1,2,3,4,
{16}7,7,8,8,1/7,,8>2[8:1],1,8<6[8:1],,8-4[8:1],,8,,8,,
1,1,8,8,1/7,,8<4[8:1]*V64[8:1],8,4>8[8:1]*V28[8:1],,8,,,,,,
4,4,3,3,2/4,,3>1[8:1],3,6<1[8:1],,3v8[8:1],,6,,3,,
{8}6<1[8:3],,5,4,,5,{32}4/8,3/7,2/6,1/5,4/8,,,,
{16}7-3[8:1],8,6,1,7,,1,1,8,8,2,,1b/6b,,7b/8b,,
2-6[8:1],1,3,8,2,,8,8,1,1,7,,1,1,2,3,
7-3[8:1],8,6,1,7,,1,1,8,8,2,,8,8,1/7,,
2-5[8:1],1,3,8,2,,7-4[8:1],8,6,1,7,,1,1,2,3,
7,2,6,1,5,8,6,1,7<4[8:1],8,7,,1,1,2,3,
8,3,7,2,6,1,7,2,8<5[8:1],3,8,3,8,,3,,
7,2,6,1,5,8,6,1,7<4[8:1],2,7,,1,1,2,3,
7-4[8:1],8,6,1,7,,2,2,1<5[8:1],1,2,,{32}5,4,3,2,1,,,,
{16}6,,1>3[8:1],,8,7,1<6[8:1],,8,5-1[8:1],1,,4,5,,,
3,,8<6[8:1],,1,2,8>3[8:1],,1,4-8[8:1],8,,5,4,,,
5,,8>2[8:1],,7,6,8<5[8:1],,7,4-8[8:1],8,,3,4,,,
7,8,1/6,,1,2/8,,7,{32}1,2,3,4,1,2,3,4,8,7,6,5,8,7,6,5,
{16}3,,8<6[8:1],,1,2,8>3[8:1],,1,4w8[8:1],8,,5,4,,,
6,,1>3[8:1],,8,7,1<6[8:1],,8,5w1[8:1],1,,4,5,,,
3,,1<7[8:1],,2,3,1>4[8:1],,2,5w1[8:1],1,,6,5,,,
3/7,,,3/7,,,2/6,,2/6,,,,8,1,1/8,,
7-5[8:1],,6/8,,8,8,,3,{32}8b,1,2,3,4,5,1b,8,7,6,5,4,8b,7,6,5,
{16}2-4[8:1],,1/3,,1,1,,6,{32}1b,8,7,6,5,4,8b,1,2,3,4,5,1b,2,3,4,
{16}7-5[8:1],,6/8,,8,8,,3,{32}8,1,2,3,4,5,1,8,7,6,5,4,8,7,6,5,
{16}2-4[8:1],,1/3,,1,1,,6,3,,3,7,,{32}1/5,2/6,3/7,4/8,1/5,,
{16}2-4[8:1],,1/3,,1,1,,6,{32}2,3,4,5,1,2,3,4,8,1,2,3,7,8,1,2,
{16}7-5[8:1],,6/8,,8,8,,3,{32}7,6,5,4,8,7,6,5,1,8,7,6,2,1,8,7,
{16}1-3[8:1],,2/8,,8,8,,6,{32}1,2,3,4,8,1,2,3,7,8,1,2,6,7,8,1,
{16}2,,4,5,3/6,,1,,2,1,2/8,,{32}3/7,4/8,1/5,2/6,3/7,,,,
{8}2,,,2,,,2,,
,2,,7,,7,2,
E
