&title=Sweets×Sweets
&artist=Team-D
&first=0
&wholebpm=132
&shortid=25
&genreid=105
&genre=maimai
&versionid=0
&version=maimai
&demo_seek=2.467
&demo_len=14.45
&clock_count=4
&lv_2=6.0
&des_2=-
&inote_2=(132){1},,
{4}2,1,2,1,
8,7,,,
7,8,7,8,
1,2,,,
2,1,2,1,
8,7,,,
2,1,2,1,
{1}8-5[4:1],
{4}8,7,8,7,
6,5,,,
2,3,2,3,
4,5,,,
7,6,7,6,
5,4,,,
2,3,2,3,
{1}3-6[4:1],
{4},6,6,6,
7,8,1,,
,3,3,3,
2,1,8,,
,7,7,7,
6,5,4,,
,2,2,2,
3,4,4/5,,
7,8,8b,,
2,1,1b,,
2,3,4,5,
6,7,8,,
7,8,8b,,
2,1,1b,,
2,3,4h[2:1],,
,2,1,2,
1,8,7,,
,7,8,7,
8,1,2,,
,2,1,2,
1,8,7,,
,2,1,2,
1,8-5[4:1],,,
,7,6,7,
6,5,4,,
,2,3,2,
3,4,5,,
,7,6,7,
6,5,4,,
,2,3,2,
3,3-6[4:1],,,
,6h[4:3],,,
,7h[4:3],,,
,8h[384:289],,,
,1h[384:289],,,
,2-7[4:1],,,
,8h[384:289],,,
,1h[384:289],
E
&lv_3=7.4
&des_3=-
&inote_3=(132){1},,
{4}2,3,2,3,
{1}1-5[4:1],
{4}7,6,7,6,
{1}8-4[4:1],
{4}3,5,3,5,
{1}2>5[4:1],
{4}7,5,7,5,
{1}7<4[4:1],
{4}2/8,2,1/7,7,
2h[2:1]/8,1,8,,
2/8,8,1/7,1,
5/6h[2:1],4,5,,
1/3,3,6/8,6,
3,4,5,6,
7h[4:1],3,2h[4:1],5-8[4:1],
{1},
{4}1,1,2,2,
{16}3,,4,,3,,,6b,,,,,,,,,
{4}8,8,7,7,
{8}6,5,6,5,6,,,,
{4}2,2,3,3,
{16}5,,4,,5,,,4h[16:5],,,,,,,,,
{4}7,7,6,6<1[4:1],
{2},3,
{4}1/2,1/8,7/8,6,
7/8,1/8,1/2,3,
{16}4/5,,,,3/6,,,,2/7,,,6,,,1-4[4:1],,
{1},
{4}3/4,2/3,1/2,5,
{16}5/6,,,6/7,,,6/7,,,,,,4,,,,
6,,,2,,,8b,,,,,,1,,,,
{4}1,2/8,1/2,2/8,
1/2,2/3,1/2,2/8,
,4/6,5/6,4/6,
5/6,6/7,5/6,4/6,
,1/8,7/8,1/8,
7/8,6/8,7/8,1/8,
,4/5,3/4,4/5,
{8}3,3-6[4:1],,,,,,,
{4},1/7h[2:1],8,1,
8,6,8,1,
,3h[2:1]/5,4,5,
4,2,4,5,
,1h[2:1]/8,2,8,
2,3,2,8,
,4/5h[2:1],6,4,
6,4-1[4:1]/5-8[4:1],,,
,1h[1:1],,,
,2h[1:1],,,
,3h[1:1],,,
,4h[1:1],,,
,5h[1:1],,,
,6h[1:1],,,
,7h[1:1],
E
&lv_4=9.3
&des_4=譜面-100号
&inote_4=(132){1},,
{4}1/2,7,1/2,7,
4/5,4/5,4/5,,
7/8,2,7/8,2,
6,5,3,4,
1/2,7,1/2,7,
5/6,5/6,3/4,3/4,
7,6,2,3-6[4:1],
,7-2[4:1],,,
1/2h[4:3],7,1,7,
3h[4:1]/6,4,3h[4:1]/6,4,
7h[4:3]/8,2,8,2,
3/6h[4:1],5,3/6h[4:1],5,
1/2h[4:3],7,1,7,
5/7,6,2/4,3,
2,3,7,6>3[4:1],
,2<7[4:1],,,
8,2,5h[4:1]/6h[4:1],,
7,3h[16:3]/4h[16:3],,,
8,7,3/4,7,
{8}3,3,6,6,4-8[4:1],,,,
{4},7,4/5,7,
2,4/5,2,,
{2}7-4[4:1],2-5[4:1],
{1}1-4[2:1],
{4}2,2,5/6,2,
7,7,3/4,7,
8,2,6,4,
{1}1>4[2:1]/8<5[2:1],
{4}1h[4:1],8h[4:1],7h[4:1],6,
8h[4:1],1h[4:1],2h[4:1],3,
{1}3-8[2:1]/4-7[2:1],
{4},4/8,3/7,4/8,
3/7,3h[2:1]/6h[2:1],,,
,1/5,2/6,1/5,
2/6,3h[4:1],4,6h[4:1],
5,4/8,3/7,4/8,
3/7,5/6,5/6,3/4,
3/4,7,6,2,
{2}3<6[4:1],7>2[4:1],
{4},8h[4:1],2h[4:1],6h[4:1],
8h[4:1],4,1/5,4/8,
,1h[4:1],7h[4:1],3h[4:1],
1h[4:1],5,4/8,1/5,
,3h[4:1]/5,4h[4:1],6h[4:1],
5,3/4,5/6,3/4,
,4/6h[4:1],5h[4:1],3h[4:1],
{8}4,7b,,2b,,,,,
{4},8>3[2:1],,,
,3<6[2:1],,,
,6<1[2:1],,,
{1},
{4},1<6[2:1],,,
,6>3[2:1],,,
,3>8[2:1],
E
&lv_5=11.4
&des_5=maimai TEAM
&inote_5=(132){1},,
{8},2,,3,,4,,5,
,{4}7,6,5,{8}4,
,1,2,3,,2,,1,
,8,7,6,,7,,6,
,1,2,3,,8,,7,
,7,8,1,,2,,8,
,7,6,7,,6,5,2h[4:1],
,1,7-3[4:1],,1,,8,,
,2/7,,3/7,,4/7,,4/8,
,{4}2/7,2/6,2/5,{8}1/5,
,1/6h[4:1],2,3,,2/8,,1/7,
,3h[4:1]/8,7,6,,1/7,,2/8,
,1/3,2/4,1/2,,6/8,,6/7,
,5/7,6/8,5/6,,2/4,,3/4,
,1/3,2/8,1/8,,5/7,4/6,7h[4:1],
,8,2-6[4:1],,8,,1b,,
{16},,,,1,,1,,2/8,,,2/7,,,3,,
3,,3,,4/6,,,4/5,,,5,,4,,3,2,
,,,,8,,8,,1/7,,,2/7,,,6,,
6,,6,,3/5,,,4/5,,,4,,5,,6,7,
,,,,1/7h[16:7],,1,,2,,,2,,,3/6h[16:9],,
3,,3,,4,,,4,,,5,,4,,3,2,
,,,,2h[16:7]/8,,8,,7,,,7,,,3h[16:9]/6,,
6,,6,,5,,,5,,,4,,5,4b,5b,,
{8},2/8,,1/3,,2,3,4,
,1/7,,6/8,,7,6,5,
,3/5,,2/4,,1/3,2,1/3,
,4/6,,5/7,,6/8,7,6/8,
,2/8,,1/3,,2/4,3/5,2/4,
,1/7,,6/8,,5/7,4/6,5/7,
,3/5,,2/4<7[8:3],,,8b,,
1b,,2/8h[4:1],,3,1h[4:1]/7,,6,
6,5,5,4,3,2,,,
1,1,2,2,3,1/3h[4:1],,4,
,5,4,3,2/8,1/7,,,
8,8,7,7,6,6h[4:1]/8,,5,
,4,5,6,1/7,2/8,,,
1,1,2,2,3,1/3h[4:1],,4,
4,3/5h[4:1],,6,7<4[4:1],,1b,,
8b,,1h[4:1]/7,,6,2/8h[4:1],,3,
3,4,4,5,6,7,,,
8,8,7,7,6,6h[4:1]/8,,5,
,4,5,6,1/7,2/8,,,
1,1,2,2,3,1/3h[4:1],,4,
,5,4,3,2/8,1/7,,,
8,8,7,7,6,6h[4:1]/8,,5,
5,4h[4:1]/6,,3,2>5[4:1],,8b,,
1b,,2/8<5[2:1],,3,3,3,4,
,4,4/5<8[2:1],3,3,3h[2:1],,,
{4},4/8<5[2:1],4,3,
3,2/5<8[2:1],2,1,
{8}2,,2/8<5[2:1],3,3h[4:1],,,4,
,3,3/5<8[2:1],2,1,1h[8:7],,,
{4},8<5[2:1],
E
