&title=Love or Lies
&artist=capsule [cover]
&first=0
&wholebpm=128
&shortid=27
&genreid=101
&genre=POPS&アニメ
&versionid=0
&version=maimai
&demo_seek=70.362
&demo_len=14.5
&clock_count=4
&lv_2=5.0
&des_2=-
&inote_2=(128){1},,
3,
3,
3,
3,
{2}1,2,
3,4,
5,6,
7,8,
{4}1,1,1,,
8,8,8,,
1,1,1,,
{1}4-7[2:1],
{4},8,8,8,
7,6,5,,
,3,3,3,
4,5,6,,
,8,8,8,
1,2,3,,
{2}1,8,
{1}8b,
2-5[2:1],,
4-7[2:1],,
7/8,
1/2,
{2}3,4,
6,5,
{1}7h[2:1],
5h[2:1],
3h[2:1],
1-4[2:1],,
5h[4:3],
{4},6,7,8,
1,,,1b,
,7,8,2,
,2,1,7,
,7,8,2,
,3,4,6,
,6,5,3,
,3,4,6,
,7-2[2:1],,,
{1},
{4},2,8,7,
,7,1,2,
,2,8,7,
,6,4,3,
,2h[2:1],,,
,2h[2:1],,,
,7,6,6,
6b,
E
&lv_3=6.8
&des_3=-
&inote_3=(128){1},,
6,
6,
6,
6,
{4}1,1,2,2,
3,3,4,4,
5,5,6,6,
7,7,8,8,
1,1/8,8,7/8,
7,6/7,6,5/6,
5,4/5,4,3/4,
{1}2-7[2:1],
{4},8,7,6,
5,4,3,2,
,1,2,3,
4,5,6,6b,
,8,7,6,
5,6,7,7,
{1}2<7[2:1],,
3-8[2:1],
6-1[2:1],
3>8[2:1],
6<1[2:1],
{4}7h[4:3],6,,6,
3h[4:3],2,,2,
7h[4:3],8,,8,
2h[4:3],1,,1,
3/6,5,4,3,
4,5,6,7,
2/7,1,8,7,
8,1,2,3,
{384},6h[384:287],,,{32},{24},,,,,{4}5,4,3,
2h[4:3],3,4,5,
1,3,7,6,
{16}2/7,,,2/7,,,2b/7b,,,,,,1/8,,,,
{4}8,1/8,2,3,
2,1/8,7,6,
7,1/8,2,3,
4,4/5,5,6,
5,4,3,3b,
4,5,6,6b,
5,4,3,3b,
2,7,8,1/8,
1,1/8,7,6,
7,1/8,2,3,
2,1/8,7,6,
5,4/5,4,3,
,5b/6b,2-5[4:1],,
,3b/4b,7-4[4:1],,
,7,6,7-2[2:1],
E
&lv_4=9.5
&des_4=譜面-100号
&inote_4=(128){1},,
{16}3,,3,,3,,,4,,,,,,,,,
6,,6,,6,,,5,,,,,,,,,
3,,3,,3,,,4,,,,,5,,5,,
6,,6,,6,,,5,,,,,4,,4,,
3,,4,,3,,,3,,,4,,5,,4,,
6,,5,,6,,,6,,,5,,4,,5,,
3,,4,,3,,4,3,,,4,,5,,4,,
6,,5,,6,,5,6,,,5,,4,,5,,
3,,3,5,,5,,,2,,2,4,,4,,,
1,,1,3,,3,,,8,,8,2,,2,,,
7,,7,1,,1,,,6,,6,8,,8,,,
5,,,5,,,5-8[8:1],,,,,,,,,,
{8}1h[4:1],,2h[4:1],,3h[4:1],,4,8,
4h[4:1],,5h[4:1],,6h[4:1],,7,3,
8h[4:1],,7h[4:1],,6h[4:1],,5,1,
5h[4:1],,4h[4:1],,3h[4:1],,2,6,
2h[4:3],,3,,4,,5,1,
5h[4:3],,4,,3,,2,6,
7h[4:3],,6,,5,,4,8,
{16}3,,,3,,,3,,,3,,,3,,2,,
{8}1h[4:3],,,,,,7,6,
5h[4:3],,,,,,4,3,
{4}2h[4:1],1h[4:1],8h[4:1],7h[4:1],
{8}6>3[4:1],,,,,,2,3,
4h[4:3],,,,,,7,6,
5h[4:3],,,,,,7,8,
{4}1h[4:1],7h[4:1],3h[4:1],5h[4:1],
{1}4h[2:1],
{16}8h[4:3],,,,6,,,6,,,,,,,,,
4h[4:3],,,,2,,,2,,,,,,,,,
{4}1,2,3-6[4:1],,
7-2[4:1],,,7h[1:1],
6>3[4:1],,,2h[1:1],
3<6[4:1],,,7h[2:1],
8,3h[2:1],4,6h[8:5],
{16}5,,,5,,,5b,,,,7,,{384}8,{16},,{384}1h[384:215],,,,,,,,,,,,,,,,,,,,,,,,,,,,,,,,,,,,,,,,,,,,,,,
{16},,,,2,,,2,,,2,,1,,8h[16:9],,
,,,,7,,,7,,,7,,6,,5h[16:9],,
,,,,3,,,3,,,2,,3,,4h[16:9],,
,,,,5,,,5,,,6,,5,,6h[16:9],,
,,,,4,,,4,,,3,,4,,3h[16:9],,
,,,,5,,,5,,,4,,5,,6h[16:9],,
,,,,4,,,4,,,5,,4,,3h[16:9],,
,,,,2,,,2,,,7,,8,,1,,
2,,,,1,,,1/2,,,2,,1,,8,,
7,,,,8,,,7/8,,,8,,7,,6,,
5,,,,6,,,5/6,,,1,,2,,3,,
4,,,,3,,,3/4,,,6,,5,,4,,
3,,,,5,,,4b/5b,,,6,,5,,4,,
3,,,,5,,,4b/5b,,,6,,5,,4,,
3,,,,5,,,4b/5b,,,6,,5,,4,,
3,
E
&lv_5=11.7
&des_5=ニャイン
&inote_5=(128){1},,
{16}3,,3,,3,,,8,,1,8,,2,,,,
2,,2,,2,,,8,,1,8,,3,,,,
6,,6,,6,,,1,,8,1,,7,,,,
7,,7,,7,,,1,,8,1,,6,,,,
3,,1,,1/2,,,1,,7,1,,1/8,,,,
6,,8,,7/8,,,8,,2,8,,1/8,,,,
3,,2,,4/5,,,2,,4,2,,3/6,,,,
6,,7,,4/5,,,7,,5,7,,3/6,,,,
1,,1,2,,2,1b,,4,,4,5,,5,4b,,
2,,2,3,,3,2b,,7,,7,6,,6,7b,,
5,,5,6,,6,5b,,4,,4,3,,3,4b,,
8,,,1/7,,,6/8,,,,,8,1b,,,,
{4}1h[4:1],5h[4:1],3h[2:1],2,
{16}7h[4:1],,,,8h[4:1],,,,2,,,8,,2/7,,,
{4}5h[4:1],1h[4:1],7h[2:1],6,
{16}3h[4:1],,,,2h[4:1],,3,,4,,8,7,,1/8,,,
{4}8h[4:1],4h[4:1],6h[2:1],7,
{16}2h[4:1],,,,1h[4:1],,,,7,,,1,,2/7,,,
6,,,,7,,1/8,,7,6,,7,,,1,,
2/6,,4,8b,,5,1b,,,,,,4-8[2:1],,,,
,,,,1,,,1,,,,,2-6[2:1],,,,
,,,,7,,,7,,,,,6h[4:1],,,,
{4}5h[2:1],4,3>8[8:1],5<8[2:1],
{8},,,,,,3,2,
1h[2:1]/5>2[2:1],,,,,,8,7,
{4}2<7[2:1]/6h[2:1],,,5,
2h[4:1]/8h[2:1],,1h[4:1],7h[4:3],
3h[2:1],,,7-2[4:3],
,,,8-5[4:3],
,,,2-5[4:1],
,{2}4-7[4:1],{4}8>3[2:1],
{8},,,,,,6,6,
{16}4h[1:1],,,,3,,,3,,,,,5,,6,,
7h[4:3],,,,8,,,8,,,,,1,,,,
{8}2h[2:1],,3,4,8h[8:3],,1,1,
{16}2/3,,,4/5,,,6/7,,,,2/8,,1/3h[4:1],,2,,
1,,8,,1/7,,,2/8,,,1/7,,6h[4:1]/8,,7,,
8,,1,,2/8,,,1/7,,,3/4,,4h[4:1]/5,,6,,
7,,6,,5/7,,,4/6,,,5/6,,4/5h[4:1],,3,,
2,,3,,2/4,,,3/5,,,8,,7-3[4:1],,6,,
2,,1,,2,,,3,,,1,,2-6[4:1],,3,,
7,,8,,7,,,6,,,8,,1-4[8:1],,1,,
{8}6-3[8:1],,,,,4,5-8[8:1],5,
2-7[8:1],,,,,2b/8,1b/3h[4:1],2b,
{16}1,,8,,1/7,,2,8,,7,1,,6h[4:1]/8,,7b,,
8,,1,,2/8,,7,1,,3,4,,4h[4:1]/5,,6b,,
7,,6,,5/7,,4,6,,6,5,,4/5h[4:1],,3b,,
2,,3,,2/4,,5,3,,,1<6[8:3]/2,,3,,,,
{8}5h[2:1],,,,,5>2[8:3]/6,7,,
1h[2:1],,,,,1/8-4[8:3],2,,
{1}6-2[2:1],
{16}2,1,,5,6,,2,1,,8,7,,1/8,
E
