&title=虹と太陽
&artist=GOSH/manami
&first=0
&wholebpm=146
&shortid=31
&genreid=105
&genre=maimai
&versionid=0
&version=maimai
&demo_seek=59.5
&demo_len=15.5
&clock_count=4
&lv_2=6.0
&des_2=-
&inote_2=(146){1},
1,
1,
1,
{4}8,8,1,,
2,3,4,3,
2,3,4,3,
{1}2-5[2:1],,
{4}6,5,4,5,
6,5,4,5,
{1}6-3[2:1],,
{4}4,3,2,3,
4,3,2,3,
{1}4-1[2:1],,
{4}7,6,5,6,
7,6,5,6,
{2}7,2,
{4}8,8,1,,
,3,3,3,
4,5,6,,
,5,5,5,
6,7,8,,
,1,1,1,
2,3,4,,
,8,8,8,
1,2,3,,
{1}4h[2:1],
5h[2:1],
3h[2:1],
6h[2:1],
2h[2:1],
7h[2:1],
{2}1/8,1/8,
{4}1,8,2,7,
{1},
{4}2,,,1b,
{1}8-3[2:1],
{4},,4,3,
{1}2-5[2:1],
{4},,5,6,
{1}7-2[2:1],
{4},,6,7,
{1}8-5[2:1],,
{4}1,2,1,2,
8,1,8,1,
7,8,7,8,
{8},7,7,,2/7,,,,
{4},1,7,1,
8,2,8,1,
{2}7h[4:1],2h[4:1],
{4}8,7,1,2,
8,1,8b,
E
&lv_3=8.4
&des_3=-
&inote_3=(146){1},
{8}2/7,,,,,,,1/8,
1/8,,,,,,,2/7,
{1}1/8,
{4}7,8,1,,
6,8,3,1,
7h[8:1],8h[8:1],1h[8:1],2h[8:1],
{1}3-6[4:1],
{4}7,8,7,8,
7,5,2,4,
3h[8:1],4h[8:1],5h[8:1],6h[8:1],
{1}7-2[4:1],
{4}3,4,3,4,
5h[4:3],7,1,3,
4h[4:3],2,8,6,
{1}7-2[4:1],
{4}7,2,7,2,
8h[4:3],6,4,2,
1h[4:3],3,5,7,
{2}4/5,3/6,
{4}1,8,1,,
5,4/6,4,3/5,
,{2}1/3,{4}6/8,
5,4/6,4,3/5,
,{2}1/7,{4}2/8,
5,4/6,4,3/5,
,{2}2/6,{4}3/7,
5,4/6,4,3/5,
,{2}1/8,{4}4/5,
{1}6<1[4:1],
{4}2,3,2,,
{1}3>8[4:1],
{4}7,6,7,,
{1}6>3[4:1],
{4}2,1,2,,
{1}2<7[4:1],
{8}6,,1,,8,,3,2b/7b,
{1},
{16}1/8,,,,,,7,,,2,,,1b/8b,,,,
{4}6h[4:7],3,2,3,
2,3,2,,
7h[4:7],4,3,4,
3,4,3,,
1/8h[2:1],3,,,
7h[2:1]/8,1,,,
1,2,8,7,
5,6,4,3,
3h[4:7],7,6,7,
6,7,6,,
4h[4:3]/7,6,7,,
{1}3-7[4:1],
{4}6,8,3,1,
7,5,2,4,
7h[2:1],2,1h[2:1],8,
2,3/6,7,3/6,
2/8,1/7,2/8,
E
&lv_4=11.2
&des_4=譜面-100号
&inote_4=(146){1},
{8}2/7,,,,,,,1/8,
2/7,,,,,,,1/8,
{1}2/7,
{12}8,1,8,2,1,2,8b,,,,,,
{16}8,,,2,8,,,,8,,,2,8,,,,
1,,,8,1,,,,1,,,8,1,,7,,
{1}2-7[2:1],
{16}3,,,5,3,,,,3,,,5,3,,,,
6,,,4,6,,,,6,,,4,6,,,,
4,,,5,4,,,,4,,,5,4,,6,,
{1}5-2[2:1],
{16}7,,,5,7,,,,7,,,5,7,,,,
3,,,5,3,,,,3,,,5,3,,,,
6,,,5,6,,7,,6,,,5,6,,7,,
{1}7-2[2:1],
{16}7,,,1,7,,,,7,,,1,7,,,,
2,,,8,2,,,,2,,,8,2,,,,
3,,,4,3,,2,,3,,,4,3,,2,,
{2}1,8,
{12}1,8,1,7,8,7,1b,,,,,,
{16}5,,,3,,,5,,5,,,3,,,5,,
4,,,6,,,4,,4,,,6,,,4,,
2,,,4,,,2,,2,,,4,,,2,,
7,,,5,,,7,,7,,,5,,,7,,
3,,,3,,,5,,3,,,3,,,5,,
6,,,6,,,4,,6,,,6,,,4,,
3,,,3,,,1,,3,,,3,,,1,,
6,,,6,,,8,,6,,,6,,,8,,
{1}7<4[2:1],
2>5[2:1],
6>3[2:1],
3<6[2:1],
5>2[2:1],
4<7[2:1],
4>1[2:1],
{16}7,7,,7,1,1,,1,8,8,,8,2,,2/7,,
{1},
{16}1/8,,,,,,7/8,,,1/8,,,1/2,,,,
8,,,7,1,,8,,8,,,7,1,,8,,
8h[16:3],,,7,,,6,,1h[16:3],,,2,,,3,,
1,,,2,8,,1,,1,,,2,8,,1,,
1h[16:3],,,2,,,3,,8h[16:3],,,7,,,6,,
5,,,4,6,,5,,4h[4:1],,,,,,,,
4,,,5,3,,4,,5h[4:1],,,,,,,,
6,,,5,4,,3,,3,,,4,5,,6,,
6,,,5,4,,3,,3,,,4,5,,6,,
{4}7h[1:1],8,1,8,
2h[1:1],1,8,1,
7h[1:1],8,1,8,
{8},1,1-4[4:1]/8-5[4:1],,,,,,
{4}3,4,6,5,
2,3,7,6,
1,2,8,7,
{2}1-4[4:1],8-5[4:1],
{12}1,8,1,2,1,8,7,
E
&lv_5=12.9
&des_5=ニャイン
&inote_5=(146){1},
{8}1/8,,,,,,,2/7,
{16}1/8,,,,,,,,,7/8,,,7/8,,1/8,,
{1}1/2,
{12}1,1,1,7,8,1,2b,,,,,,
{16}6,,2,,6,3,,3,6,,2,,6,3,,3,
7,,1,8,,7,,6,,,1,,8,,7,,
{8}6h[4:3],,,7h[8:11],,,,,
{16},,,2,2,,,,,,,2,2,,,,
3,,7,,3,6,,6,3,,7,,3,6,,6,
2,,8,1,,2,,3,,,8,,1,,2,,
{8}3h[4:3],,,2h[8:11],,,,,
{16},,,6,6,,,,,,,6,6,,,,
7,,6,,7,1,,1,7,,6,,7,1,,1,
7,,8,4,,5,,6,,7,,8,4,,5,,
{8}6>3[2:1],,,7h[8:11],,,,,
{16},,,1,1,,,,,,,1,1,,,,
2,,3,,2,8,,8,2,,3,,2,8,,8,
2,,1,5,,4,,3,,2,,1,5,,4,,
{2}3h[4:1],6h[4:1],
{12}8,8,8,2,1,8,7,,,,,,
{16}3,,3,5,,5,3,,5,,5,4,,4,5,,
4,,4,6,,6,4,,6,,6,3,,3,6,,
3,,3,5,,5,3,,5,,5,2,,2,5,,
1,,1,4,,4,1,,5,,5,2,,2,5,,
5,,5,3,,3,5,,3,,3,6,,6,3,,
6,,6,4,,4,6,,4,,4,7,,7,4,,
8,,8,5,,5,,8,4,,4,7,,7,4,,
8,8,,8,,8,,8b,,,,,,,,,
{4}4/5h[4:27],4,4,4,
{1}4-7[2:1],
{4}7,7,7,7,
{1}7-3[2:1],
{4}3,3,3,3,
{1}3-8[2:1],
{4}8,8,8,8,
{16}8,1,,1,2,1,,1,8,1,,1,2/7,,1/8,,
{1},
{16}1/8,,,,,,7b/8b,,,4b/5b,,,1b/2b,,,,
7,,,8,1,,2,,2,,,1,8,,7,,
7h[16:3],,,6h[16:3],,,5h[8:1],,4h[16:3],,,3h[16:3],,,2,,
2,,,1,8,,7,,7,,,8,1,,2,,
,,2h[4:1],,,,3h[8:1],,4h[16:3],,,5h[16:3],,,6h[8:1],,
7h[4:3],,,8,,,1h[8:3],,,,,,,,,,
2h[4:3],,,1,,,8h[8:3],,,,,,,,,,
3h[4:7],,,6,6,,,,,,,6,6,,,,
,,,6,6,,,,,,,6,6,,,,
{2}8-5[4:1],1-4[4:1],
8-4[4:1],1-5[4:1],
8-3[4:1],1-6[4:1],
{8},7,3>8[4:1]/7<4[4:1],,,,,,
{16}1,,,6,1,,,,1,,,6,1,,,,
8,,,2,8,,,,8,,,2,8,,,,
2,,,2,,,2,,7,,,7,,,7,,
1/8,1b/8b,,,3/4,,5/6,,1/8,1b/8b,,,3/6,,4/5,,
{12}1b/8b,7,8,1,2,1,1b/8b,
E
