&title=Garden
&artist=May J. [cover]
&first=0
&wholebpm=99
&shortid=34
&genreid=101
&genre=POPS&アニメ
&versionid=0
&version=maimai
&clock_count=4
&chartconverter=MaiChartManager v26.3
&ChartConvertTool=MuConvert
&ChartConvertToolVersion=0.4.0-rc.7+47834d4
&lv_2=4.0
&des_2=-
&inote_2=(99.97){1},
{4},6,,5,
,{2}4,{4}3,
,2,2,1,
,7,7,8,
,2,2,3,
,7,7,6,
,1,1,2,
,8,8,7,
,2,2,1,
,7,6,5,
4/5,,5,6,
7,7,7,7/8,
,,4,3,
2,2,2,1/2,
,7-2[4:1],,,
,{2}1,2/8,
2-7[4:1],,
8,1/7,
1-4[4:1],,
3,2,
{4}8-5[4:1],,,
,6,7b,,
,8h[2:1],,,
,7,6,7,
,1h[2:1],,,
,2,3,2,
,7h[2:1],,,
,6,7,6,
,2h[2:1],,,
,3,2,3,
,{2}8,{4}1/7,
,7,6,7,
,{2}1,{4}2/8,
,2,3,2,
,{2}7,{4}1/8,
,7,8,7,
,{2}2,{4}1/8,
,2,1,1,
1b,
E
&lv_3=5.5
&des_3=-
&inote_3=(99.97){1},
{2}7,8,
1,2<7[4:1],
{8},1,1,,2,,3,,
,6,6,,7,,8,,
,2,2,,3,,4,,
,7,7,,6,,5,,
,1,1/8,,2,,3,,
,6,6,,7,,8,,
,2,2,,1,,8,,
{4},6,5,4,
3/6,1,2,1,
3,3-8[4:1],,,
2/7,8,7,8,
7,6-2[4:1],,,
,{2}2,{4}1/7,
,8,8-4[4:1],,
,2,,1/3,
,4,5<8[4:1],,
,8,,1/7,
,6,4>7[4:1],,
,8,,1,
{8},2,2,3,3,,,,
,1,1,,6,,2,,
,6,6,,3,,5,,
,2,2,,5,,3,,
,7,7,,2,,8,,
,1,1/8,,3,,2,,
,6,5/6,,7,,8,,
,2,1/2,,1,,8,,
,2,1/2,,1/8,,7/8,,
,1,1h[2:1],,3,,3,,
,8,8h[2:1],,6,,6,,
,2,2h[2:1],,3,,4,,
,6,6h[2:1],,7,,8,,
,2,1/2,,1/8,,6/7,,
,7,7/8,,1/8,,2/3,,
,8,2/8,,1/3,,2/8,,
{4}1,8,7,6,
8b,
E
&lv_4=7.4
&des_4=-
&inote_4=(99.97){1},
{4},,,3,
{8}6,,3,,5/6,,3/4,3,
{16},,8,,7,,,,6h[16:3],,,5h[16:3],,,6,,
,,1,,2,,,,3h[16:3],,,4h[16:3],,,3,,
,,6,,5,,,,3/4h[16:3],,,3h[16:3],,,4,,
,,3,,4,,,,5h[16:3]/6,,,6h[16:3],,,5,,
,,8,,1,,,,2h[16:3]/6,,,6h[16:3],,,2,,
,,1,,8,,,,3/7h[16:3],,,3h[16:3],,,7,,
,,2,,3,,,,1/4h[16:3],,,1h[16:3],,,4,,
{8},7,6,5,1,2,3,4,
,8,1/8,,3,3,1,1,
5,5,7,7,6,5-8[8:1],4,,
,1,1/8,,6,6,8,8,
4,4,2,2,3-8[8:1],4,,,
,,5,,,1,1/2,,
,7,6/7,,,3,3/4,,
,,4,,,8,7/8,,
,2,2/3,,,6,5/6,,
,3/4,2/5,,,7/8,1/6,7/8,
,1,5,,,1/2,3/8,1/2,
,6/7,5/8,,,1/2,3/8,1/2,
,{4}5b/6b,3b/4b,7b/8b,{8}1b/2b,
{16},,1/8,,2/7,,,,2h[16:3]/3,,,6h[16:3],,,3,,
,,1/8,,2/7,,,,6/7h[16:3],,,3h[16:3],,,6,,
,,1/8,,2/7,,,,3/4h[16:3],,,5h[16:3],,,6,,
,,1/8,,2/7,,,,5h[16:3]/6,,,4h[16:3],,,3,,
,,7/8,,1/6,,,,2/3h[16:3],,,4h[16:3],,,5,,
,,1/2,,3/8,,,,6h[16:3]/7,,,5h[16:3],,,4,,
,,1/8,,2/7,,,,2h[16:3]/3,,,7h[16:3],,,6,,
{8},3,5,2,6,1,7,8,
{16},,1/2,,3<6[16:3]/8,,,,,,,7,,,7,,
,,7/8,,1/6>3[16:3],,,,,,,2,,,2,,
,,1/2,,3/8<5[16:3],,,,,,,4,,,4,,
,,7/8,,1>4[16:3]/6,,,,,,,5,,,5,,
,,2/3,,1/4-7[16:3],,,,,,,5,,,5,,
,,6/7,,5-2[16:3]/8,,,,,,,4,,,4,,
{8},1/2,3>8[4:1]/8<5[4:1],,,,,,
,7/8,1>4[4:1]/6<1[4:1],,,,,,
5,
E
&lv_5=8.9
&des_5=-
&inote_5=(99.97){1},
{4}3,3,6,6,
{8}7,8,1,2,3>8[4:1],,,,
{16},,8,,8,,,,2h[2:1],,,3,,,3,,
{8}7,4/5,4-8[8:1]/5,,6-2[8:1],,,,
{16},,1,,1,,,,7h[2:1],,,6,,,6,,
{8}2,1/8,1/8-4[8:1],,2-6[8:1],,,,
{16},,4,,4,,,,6h[2:1],,,7,,,7,,
{8}3,1/2,7/8-3[8:1],,4-7[8:1],,,,
{16},,2,,1,,,,3h[2:1],,,2,,,2,,
{8},7,8,1,1/2,5/6,3/4,,
{4}3-8[8:1],7-4[8:1],3>8[4:1],,
{8},1,4,7,2,5,8,3,
{4}6-1[8:1],2-5[8:1],6<1[4:1],,
{8},7,7,,1/8,3/6,2b/7b,,
,,5h[8:3],,,1,2,3,
{16},1h[8:1],,,8h[2:1],,,,7<2[4:1],,,,,,,,
{8},7,6h[4:1],,5,4,3,4,
{16},7,7,,8-5[4:1],,,,1-4[4:1],,,,,,,,
{8},2,3h[4:1],,4,5,6,5h[8:3],
{16},8,,,1,,,,,,3/7,,4/8,,1/5,,
{8},3,4/5,,7,1/8,2,3,
5,4/5,3,3b/6,7,2/7b,1,1b/8b,
7h[4:1],8,1,8,1,2,,2,
8,7/8,6h[4:1]/7b,,1h[8:1],2h[8:1],3h[8:1],4h[8:1],
2h[4:1],1,8,1,8,7,,7,
1,1/2,2b/3h[4:1],,8h[8:1],7h[8:1],6h[8:1],5h[8:1],
7h[4:1],8,1,8,1,2,,2,
8,7/8,6h[4:1]/7b,,1h[8:1],2h[8:1],3h[8:1],4h[8:1],
2h[4:1],1,8,1,8,7,,7,
1,1/2,2/3,3/4,4/5,6/7b,1/2b,1b/8b,
{16}3/6,,8,,7,,8,,4,,3,1,,1,7,,
{8}6,4/5,4-8[8:1]/5,,6-2[8:1],,,,
{16},,1,,2,,1,,5,,6,8,,8,2,,
{8}3,4/5,4/5-1[8:1],,3-7[8:1],,,,
{16},,8,,7,,8,,4,,3,1,,1,7,,
{8}6,4/5,4-8[8:1]/5,,6-2[8:1],,,,
{16},,1,,2,,1,,5,,6,8,,8,2,,
{8}3,4/5,4,,2b/7b,3b/6b,4>1[4:1]/5<8[4:1],
E
