&title=炭★坑★節
&artist=Kai/光吉猛修
&first=0
&wholebpm=112
&shortid=35
&genreid=105
&genre=maimai
&versionid=0
&version=maimai
&demo_seek=10
&demo_len=17
&clock_count=4
&lv_2=5.0
&des_2=-
&inote_2=(112){1},
{4},1,,1,
,{2}8,8,
1,1/8,
7,2/7,
7/8,{4}1/2,
{8},,7/8,,,,2,2b,
{4},3,,4,
,5,,,
{2}8,1/7,
2/8,1/8,
8,1,
{8}8,,1,1b,,,7,,
{4}6,5,4,3,
4,4/5,4,3,
2,1,8,7,
8,1/8,7,6,
5,4/5,3,2,
2,3/4,2,3,
4,5,6,7,
8,1/8,,3/4,
,{2}5/6,{4}7/8,
{8},,1,1b,,,2,,
,,{2}1/8,{4}7,
{2},3/4,
5/6,3/4,
5/6,7,
{8}2/8,,1,,2,,1,1b,
{4},1-4[4:1],,,
{8},,7,7,,,6,6,
{4},8-5[4:1],,,
{8},,7,7,,,8,8,
{4},7-2[4:1],,,
{8},,2,2,,,1,1,
,,8,8,,,7,7,
{1}1h[4:3]/8h[4:3],
{4},7/8,,1/2,
{8},,1/8,,,,7,7b,
{4},5/6,,3/4,
,1/8,,,
{2}4/6,3/5,
{4}2/8,,1/7,1/2,
3,3/4,5,5/6,
{8}7,,1,1b,8,,,,
{2}7/8,1/8,
3/6,2/6,
3/7,
E
&lv_3=7.1
&des_3=-
&inote_3=(112){1},
{4},3,2,1/2,
,6,7,7/8,
,7,8,1/8,
,3,4,4/5,
2,7/8,7,1/2,
{8}2,,7/8,,7,,2,2b,
{4}3,5/6,6,3/4,
3,4/5,,3,
1/7,6,2/8,3,
4/6,6,3/5,,
7/8,,1/2,8,
{8}1,,7,7b,7,,6,,
{4}5,4-7[4:1],,3-8[4:1],
,1b,2,3,
4,5-2[4:1],,6-1[4:1],
,8b,7,6,
5,4/5,3,2,
2,3/4,2,2/3,
4,4/5,6,6/7,
7/8,1/8,7,1/2,
6,3/4,2,7/8,
{8}7,,1,1,,,1/2,,
{4}1,1/8,7,7,
7,3,3/4,6,
5/6,3,3/4,6,
5/6,7,1/7,2,
{8}2/8,,1,,2,,1,1b,
{4}3,2,1,8-3[4:1],
,{2}7-4[4:1],{4}5,
6,7,8,1-6[4:1],
,{2}2-5[4:1],{4}1,
2,3,4,5-2[4:1],
,{2}6-1[4:1],4-7[4:1],
{4}3-8[4:1],,,
{1}1h[4:3],
{4}4,2/3,5,6/7,
{8}4,,1/2,,5,,7/8,7/8,
{4},5/6,7,3/4,
2,1/8,,1,
2/7,8,2/7,3,
2/7,6,2/7,1,
3/4,5,5/6,7,
{8}7/8,,1,1b,8,,,,
{2}7/8,1/8,
3/6,2/6,
3/7,
E
&lv_4=10.7
&des_4=譜面-100号
&inote_4=(112){1},
{4},2,,1/2,
{8},,1,,,1/8,7/8,,
,,{2}7,{4}7/8,
{8},,8,,,1/8,1/2,1/8,
{4},3/4,,3/4,
{8},,5/6,,,,7/8,7/8,
{4},5/6,,5/6,
,{2}3/4,3-8[8:1]/4,
5/6-1[8:1],{4}3-8[8:1]/4,
{8},,,,1/2,1/2,,,
{2}5/6,3/4,
{8}5/6,1,8b,8b,2/3,,1/8,,
2/3,1/2,1/8,,6/7,,1/8,,
6/7,7/8,1/8,,3/4,,1/2,,
3/4,2/3,1/2,,5/6,,7/8,,
5/6,6/7,7/8,,4/5,,2/3,,
4/5,3/4,2/3,,4/5,,6/7,,
4/5,5/6,6/7,,3/4,2/3,1/2,,
5/6,6/7,7/8,,2/3,1/2,1/8,,
6/7,7/8,1/8,,4-1[8:1],,,,
{2}5-8[8:1],4-1[4:1],
{8},,8,8,7>2[4:1],,,,
{2}3>8[4:1],6<1[4:1],
{16},,,,8h[16:3],,,1,2,,,,1h[16:3],,,8,
7,,,,8h[16:3],,,1,2,,,,1h[4:1],,,,
7,,7,,6,,,5,4,,,,3,,,4,
5,,,,6,,,5,4,,3,,2b,,2b,,
{8}4/5,2,2/3,5,4/5,2,2/3,5,
4/5,7,6/7,4,4/5,7,6/7,4,
4/5,2,2/3,5,4/5,2,2/3,5,
4/5,7,6/7,4,4/5,7,6/7,4,
4/5,3/4,2/3,3/4,4/5,3/4,2/3,3/4,
4/5,5/6,6/7,5/6,4/5,5/6,6/7,5/6,
4/5,3/4,2/3,3/4,4/5,5/6,6/7,7/8,
{1}1h[4:3],
{16}1,,,1,2,,2,,8,,,8,7,,7,,
1,,,1,2,,2,,8h[8:3],,,,1,,1,,
8,,,8,7,,7,,6,,,6,5,,5,,
4,,,4,3h[4:1],,,,,,,,,,1,8,
7h[8:3],,,,,,8,1,2h[8:3],,,,,,1,8,
7h[4:1],,,,8h[8:3],,,,1,,1,,6h[16:3],,,5,
4,,,,3h[16:3],,,4,5,,,,6h[16:3],,,5,
{8}4,5/6,7/8,5/6,4/5,3/4,1/2,3/4,
4/5,5/6,7/8,5/6,4/5,3/4,1/2,3/4,
4/5,5/6,7/8,5/6,4/5,3/4,1/2,3>8[4:1]/4<7[4:1],
E
&lv_5=13.3
&des_5=ニャイン
&inote_5=(112){1},
{4}2,2,2,2,
7,7,7,7,
{8}1,2,3,,8,7,6,,
2,3,4,,4-1[8:1]/5-8[8:1],,,,
{4},7,,7,
{8},,2,,2,,7/8,7/8,
{4},3,,4,
,4,,,
8,3,6,2,
7,1,8,,
{2}2,7,
{24}7,,,,,,1/2,,,1b/2b,,,4,,5,4,,5h[6:1],2,,,2,,,
5,,4,5,,4h[6:1],7,,,7,,,4,,5,4,,5,4-8[8:1],,,2,,,
5-1[8:1],,,,,,,,,,,,8,,,7,,2,1,,1,8,,,
4,,,3,,6,5,,5,4,,,1,,8,7,,7,5-1[8:1],,,7,,,
4-8[8:1],,,,,,,,,,,,4,,5,4,,5h[6:1],2,,,2,,,
5,,4,5,,4h[6:1],7,,,7,,,4,,5,4,,5,4-8[8:1],,,2,,,
5-1[8:1],,,,,,,,,,,,8,,,7,,2,1,,1,8,,,
4,,,3,,8,8-3[8:1],,,2,,,6-1[8:1],,,,,,{4}4-8[8:1],
{16}5-1[8:1],,,,,,,,6,,,8,7,,8,,
1,,,2,3,,2,,1,,,8,7,,8,,
1,,,,7/8,,1/2,,3,,,4,5,,4,,
5,,,6,7,,6,,5,,,,4,,,,
{8},,,7,8h[8:3],,,4,
3h[8:3],,,8,7h[4:1],,1h[4:1],,
2h[4:1],,,3,4,3,,8,
7,6,,6,2/7,8,1/7,2/8,
{24}1,,,8,,,1/8,,,,,,1,,8,,,1,{4}8,
{24}7,,6,5,,6,6/7,,,1/2,,,2,,3,4,,3,2/3,,,7/8,,,
1,,,8,,,1/8,,,,,,1,,8,,,1,{4}8,
{24}2,,3,4,,3,2/3,,,7/8,,,7,,6,5,,6,6/7,,,1/2,,,
8,,,1,,,1/8,,,,,,8,,1,,,8,{4}1,
{24}7,,6,5,,6,6/7,,,1/2,,,2,,3,4,,3,2/3,,,7/8,,,
1,,2,2/3,,3,1/3,,1,8,,,8,,7,6/7,,6,6/8,,8,1,,,
{1}6h[1:1],
{24}2,,,1,,3,2,,,1/2,,,7,,,8,,6,7,,,7/8,,,
3,,,4,,2,3,,,3/4,,,6,,,5,,7,6/7,,,5/6,,,
1,,,8,,2,1,,,3/7,,,8,,,1,,7,8,,,2/6,,,
{4}1,1,,,
{2}8h[2:1],1h[2:1],
{4}8h[2:1],,7,{24}6,,,,,6,
{8}5,5,{12}4,{8},{24}4,{8}3,3,{12}2,{8},{24}2,
{8}1,1,7<4[8:1]/8>3[8:1],7/8,,,1<6[8:1]/2>5[8:1],1/2,
,,7<4[8:1]/8>3[8:1],7/8,,,1<6[8:1]/2>5[8:1],1/2,
,,4>1[8:1]/5<8[8:1],4/5,,,1b/8b,2b/7b,
E
