&title=Chu Chu
&artist=moumoon [PV]
&first=0
&wholebpm=98
&shortid=41
&genreid=101
&genre=POPS&アニメ
&versionid=0
&version=maimai
&clock_count=4
&chartconverter=MaiChartManager v26.3
&ChartConvertTool=MuConvert
&ChartConvertToolVersion=0.4.0-rc.7+47834d4
&lv_2=4.0
&des_2=-
&inote_2=(98){1},
{4},8h[2:1],,,
,1h[2:1],,,
,2h[2:1],,,
,{2},{4}2-7[2:1],
{1},
{4},2,2,2,
,1,1,1,
,8,8,8,
,7,7,7,
,8,8,8,
,1,1,1,
,2,2,2,
,3,3,3,
{16},,,,3,,,,2,,,2,,,,,
{4},2,1,8,
{16},,,,8,,,,7,,,7,,,,,
{4},7,6,5,
{16},,,,5,,,,6,,,6,,,,,
{4},7,8,1,
{16},,,,1,,,,8,,,8b,,,,,
,,,2/7,,,2/7,,,,,,,,,,
{8}7,,7,,,6,6,,
8,,8,,,1,1,,
2,,2,,,3,3,,
1,,1,,,8,8,,
7,,7,,,6,6,,
8,,8,,,1,1,,
2,,2,,,3,3b,,
{1}2-7[2:1],
{4},2,2,2,
1,8,8,8,
7,6,6,6,
7,8,8,8,
{16},,,,7,,,,8,,,7/8,,,,,
,,,,2,,,,1,,,1/2,,,,,
,,,,7,,,,8,,,7/8,,,,,
{4}1,2,3,2,
{16},,,,7,,,,3,,,3/6,,,,,
,,,,3,,,,7,,,2/7,,,,,
,,,,2,,,,6,,,3/6,,,,,
{1}3-6[2:1],
{8},,1/8,,,3/6,3/6,,
,,4/5,,,2/7,2/7,,
,,1/8,,,3/6,3/6,,
,,4/5,,,2/7,2/7,,
{4},1/8,6/7,5/6,
,4/5,2/3,1/2,
,1/8,7/8,1/8,
,2/7,2b,,
1/8,
E
&lv_3=6.0
&des_3=-
&inote_3=(98){1},
{4},6-2[2:1],,,
,1,8,7,
6,3-7[2:1],,,
,{2}6,{4}7-2[2:1],
{1},
{8},1,,2,,1,,2,
,{4}8,7,8,7,
1,2,1,2,
3,4,3,4,
6,5,6,5,
7,8,7,8,
1,2,1,2,
3,4,3,{8}4,
{16}4/5,,,,3,,,,2,,,2b,,,,,
{4}3,2,1,8,
{16}1/8,,,,7,,,,8,,,8b,,,,,
{4}7,8,1,2,
{16}3/6,,,,7,,,,6,,,6b,,,,,
{4}8,1,2,3,
{16}2/7,,,,3,,,,2,,,2,,,,,
1/8,,,1/8,,,1/8,,,,,,,,,,
{8}4,,3,,,2/7,2/7,,
8,,7,,,3/6,3/6,,
6,,7,,,2/7,2/7,,
{4}6h[4:3],8,1,2b,
{8}3,,2,,,2/7,2/7,,
7,,6,,,4/5,4/5,,
4,,3,,,1/8,1/8,,
{4}1/2,7/8-5[2:1],,,
{8},1,,2,,2,3,2,
,8,,7,,7,6,7,
,1,,2,,1,2,1,
{16},,2,,,,3,,4,,,4/5,,,5,,
5,,,,4,,,,3/4,,,3/4,,,1,,
1,,,,8,,,,7/8,,,7/8,,,5,,
5,,,,4,,,,3/4,,,3/4,,,,,
{8},1,,8,,7,,7,
{16}8,,,,1/8,,,,2,,,3/6,,,2,,
1/2,,,,8,,,,2/7,,,2/7,,,8,,
7/8,,,,1,,,,3/6,,,3/6,,,,,
,,,3>8[16:5],,,,,,,,,,,,,
{8}1,,2,,,3/6,3/6,,
8,,7,,,2/7,2/7,,
1,,2,,,3/6,3/6,,
8,,7,,,2/7,2/7,,
6h[8:5],,7,,,2,2,,
2h[8:5],,3,,,7,7,,
1h[8:5],,8,,,7,7,,
8,,1/7,,,3,3,2,
1b,
E
&lv_4=7.2
&des_4=-
&inote_4=(98){1},
{4},6-2[2:1],,,
,2>5[2:1],,,
,3-7[2:1],,,
,7>4[2:1],,,
{1},
{8},1,2,1,,2,,3,
,8,7,8,,7,,6,
,1,2,1,,2,,3,
,3,4,3,,4,,5,
,5,6,5,,6,,7,
,7,8,7,,8,,1,
,1,2,1,,2,,3,
{16},,3,,4,,3,,2/3,,,1/2,,,4,,
4,,,,3,,,,4h[8:1],,,2,,,,,
{4}6h[4:3],7,8,1,
{16}8,,,,7,,,,8h[8:1],,,8,,,,,
{4}3h[4:3],2,1,8,
{16}7,,,,6,,,,7h[8:1],,,7,,,,,
{4}8h[4:3],1,2,3,
{16}2,,,,3,,,,2h[8:1],,,2,,,,,
{8},1/8,7/8,6/7,,,,,
3,,1/2,,,2/7,2/7,,
8,,6/7,,,3/6,3/6,,
6,,7/8,,,2/7,2/7,,
{4}6h[4:3]/7,8,1,2,
{8}3,,1/2,,,2/7,2/7,,
7,,5/6,,,4/5,4/5,,
4,,2/3,,,1/8,1/8,,
{4}1/6,3/8-5[2:1],,,
{8},1,2,1,,2,3,2,
,8,7,8,,7,6,7,
,1,2,1,,2,3,2,
{16},,3,,4,,3,,3/4,,,4/5,,,6,,
5,,6,,5,,,,3h[8:1]/4h[8:1],,,3/4,,,2,,
1,,2,,1,,,,7h[8:1]/8h[8:1],,,7/8,,,6,,
5,,6,,5,,,,3h[8:1]/4h[8:1],,,3/4,,,1,,
{8}2,1,8,7,6,5,6,7,
{16}8,,,1,8,,,7,8,,,7/8,,,2,,
1,,8,,7,,,,2h[8:1]/7h[8:1],,,2/7,,,2,,
1,,,8,1,,,2,1,,,1/2,,,7,,
7,,,3>8[16:5],,,,,,,,,,,,,
{12}1,,,2/3,,,,{24}8,{12}1,{24}8,{4}1,
{12}8,,,6/7,,,,{24}1,{12}8,{24}1,{4}8,
{12}1,,,2/3,,,,{24}5,{12}4,{24}5,{4}4,
{12}8,,,6/7,,,,{24}4,{12}5,{24}4,{4}5,
{24}2,,,,,,2/7,,,,,,,,,1,,,7,,7,8,,,
7,,,,,,2/7,,,,,,,,,8,,,2,,2,1,,,
3,,,,,,3/6,,,,,,,,,4,,,5,,5,3,,,
6,,,,,,3/6,,,,,,,,,8,,,2,,2,7,,7,
1b,
E
&lv_5=9.5
&des_5=-
&inote_5=(98){1},
{8}8h[1:2],1,,1,,1,,1,
,{4}1,1,1,{8}1,
2h[8:7],7,,7,,7,,7,
{4}3/6,4-1[4:1]/5-8[4:1],,,
{12}5h[4:1],,,{24}1h[24:5],{12},,{24}8,{12}4,{24}4,{12}7,{24}7,{12}1,{24}1,2b,,,
,,,6,,,6,,,6,,3,,,8,1,,,1/8,,2,3,,,
,,,3,,,2,,,3,,7,,,4,5,,,4/5,,6,7,,,
,,,2,,,3,,,2,,6,,,1,8,,,1/8,,7,6,,,
,,,6,,,7,,,6,,,2,,4/5,,,4/5,,,,,,,
,,,2,,,6,,,2,,7,,,3,1,,,2/8,,7,1,,,
,,,6,,,2,,,6,,1,,,5,7,,,4/6,,5,3,,,
,,,7,,,3,,,7,,2,,,6,8,,,1/7,,2,8,,,
{8},3,7,3,{12}2b/3,{8},{24}1b/8,,,,,,,
{8}2/5,1,3/8,,{12}7,{8},7,{24}6,7,,,
{8}1/6,5,4/7,,{12}3,{8},3,{24}2,3,,,
{8}4/7,8,1/6,,{12}5/6,{8},{24}3/4,,,,,,,
{8}6h[8:7],7,8,1,2,3,4,5b,
4/7,8,1/6,,{12}2,{8},2,{24}3,2,,,
{8}3/8,4,2/5,,{12}6,{8},6,{24}7,6,,,
{8}2/5,1,3/8,,{12}3/4,{8},{24}5/6,,,,,,,
,,,2/7,,1,8b,,1,{8}8b,,,,,
{12}4/5,,,4/5,,,,{24}3,{12}2,{24}2,{12}1,{24}1,8,,,
{12}1/8,,,1/8,,,,{24}7,{12}6,{24}6,{12}5,{24}5,4,,,
{12}4/5,,,4/5,,,,{24}6,{12}7,{24}8,{12}1,{24}2,3,,,
{12}2/6,,,4/8,,,,{24}1,{12}8,{24}8,{12}2,{24}2,6,,,
4/5,,,3,,,4/5,,,6,,,,,2,3,,3,2,,2,1,,,
1/8,,,7,,,1/8,,,2,,,,,7,6,,6,7,,7,8,,,
4/5,,,3,,,4/5,,,6,,,,,3,6,,6,2,,2,8,,,
{4}3/7,1<4[4:1]/5>8[4:1],,,
{24},,,6,,,6,,,6,,3,,,8,1,,,1/8,,2,3,,,
,,,3,,,2,,,3,,7,,,4,5,,,4/5,,6,7,,,
,,,2,,,3,,,2,,6,,,1,8,,,1/8,,7,6,,,
{8},3,7,3,{12}2b/3,{8},{24}1b/8,,,,,,,
{8}4/7,8,1/6,,{12}2,{8},2,{24}3,2,,,
{8}3/8,4,2/5,,{12}6,{8},6,{24}7,6,,,
{8}2/5,1,3/8,,{12}3/4,{8},{24}5/6,,,,,,,
{8}3h[8:7],2,1,8,7,6,5,4b,
2/5,1,3/8,,{12}7,{8},7,{24}6,7,,,
{8}1/6,5,4/7,,{12}3,{8},3,{24}2,3,,,
{8}4/7,8,1/6,,{12}5/6,{8},3/4,{24}8,1,,,
{8}2,2b/8,1b/7,2h[2:1]/6h[2:1],,,,,
{24}4/5,,,3,,,4/5,,,6,,,,,2,3,,8,1,,6,7,,,
1/8,,,7,,,1/8,,,2,,,,,7,6,,1,8,,3,2,,,
4/5,,,3,,,4/5,,,6,,,,,3,4,,7,8,,2,1,,,
{12}3/7,,,1/5,,,,{24}1,{12}6,{24}6,{12}2,{24}2,8,,,
{12}1/8,{24}2,{12}3,{24}7,{12}6,{24}1,{12}8,{24}3,{12}4,{24}3,{12}4,{24}6,{12}5,{24}6,5,,,
4/5,,6,7,,3,2,,8,1,,,2/7,,6,5,,4,3,,5,4,,,
{12}1/8,{24}7,{12}6,{24}2,{12}3,{24}8,{12}1,{24}6,{12}5,{24}6,{12}5,{24}3,{12}4,{24}3,4,,,
2/6,,,3,,,4/8,,,7,,,,,2,1b,,1,8b,,8,7b,,7,
8b,
E
